[TR24][OF] Melanie Martinez - K-12 - 2019 (Indie Pop, R&B)

 Статистика раздачи 
Размер: 536.36 МБ   |  Зарегистрирован: 07 сен 2019, 07:57   |   .torrent скачан: 0 раз
Сидеров: 0  [ 0 байт/сек ]     Личеров: 0  [ 0 байт/сек ]  
  
Аватара пользователя
Главный редактор
Главный редактор
 
Раздал: 90.01 ТБ
Скачал: 3.78 ТБ
Ратио: 24.248
Сообщения: 273485
Стаж: 9 лет 1 месяц 11 дней
Откуда: Санкт-Петербург
СообщениеДобавлено: 07 сен 2019, 07:57


Melanie Martinez - K-12


Формат записи/Источник записи: [TR24][OF]
Наличие водяных знаков: Нет
Год издания: 2019
Жанр: Indie Pop, R&B
Издатель (лейбл): Atlantic Records
Продолжительность: 00:46:27
Наличие сканов в содержимом раздачи: Только обложка альбома
Контейнер: FLAC (*.flac)
Тип рипа: tracks
Разрядность: 24/44.1
Формат: PCM
Количество каналов: 2.0
Источник (релизер): qobuz.com
Треклист
01. Wheels On The Bus (03:40)
02. Class Fight (02:41)
03. The Principal (02:56)
04. Show & Tell (03:35)
05. Nurse's Office (03:22)
06. Drama Club (03:45)
07. Strawberry Shortcake (03:04)
08. Lunchbox Friend (02:49)
09. Orange Juice (03:37)
10. Detention (03:56)
11. Teacher's Pet (04:01)
12. High School Sweethearts (05:11)
13. Recess (03:50)
Код: Выделить всё
foobar2000 1.4 / Dynamic Range Meter 1.1.1
log date: 2019-09-07 11:46:05
--------------------------------------------------------------------------------
Analyzed: Melanie Martinez / K-12
--------------------------------------------------------------------------------
DR         Peak         RMS     Duration Track
--------------------------------------------------------------------------------
DR5        0.00 dB    -7.11 dB      3:41 01-Wheels on the Bus
DR6        0.00 dB    -9.31 dB      2:41 02-Class Fight
DR6       -0.20 dB    -8.09 dB      2:57 03-The Principal
DR6        0.00 dB    -8.17 dB      3:36 04-Show & Tell
DR7        0.00 dB    -9.39 dB      3:23 05-Nurse's Office
DR7        0.00 dB    -9.95 dB      3:46 06-Drama Club
DR5       -0.20 dB    -8.31 dB      3:05 07-Strawberry Shortcake
DR5        0.00 dB    -8.27 dB      2:50 08-Lunchbox Friends
DR7        0.00 dB    -9.60 dB      3:37 09-Orange Juice
DR7        0.00 dB    -9.35 dB      3:57 10-Detention
DR6        0.00 dB    -8.14 dB      4:02 11-Teacher's Pet
DR5        0.00 dB    -7.99 dB      5:11 12-High School Sweethearts
DR9        0.00 dB   -11.82 dB      3:51 13-Recess
--------------------------------------------------------------------------------
Number of tracks:  13
Official DR value: DR6
Samplerate:        44100 Hz
Channels:          2
Bits per sample:   24
Bitrate:           1572 kbps
Codec:             FLAC
================================================================================
'K-12' marks Martinez's long anticipated follow-up to her RIAA platinum certified, 2015 debut album, 'Cry Baby'. Produced by Michael Keenan with the exception of one song produced by Kinetics and One Love (who previously collaborated with Martinez on such hits as 'Dollhouse' and 'Carousel'), the album serves as a soundtrack companion to an eerily enchanting new musical film, written, directed, and starring Martinez.
Не забывайте говорить Спасибо. Не уходите с раздачи!   
Торрент: Зарегистрирован [07 сен 2019, 07:57]
Статус:
Проверен
 
.torrent скачан: 0 раз
Хэш: 3d0f3b9a379fb5abfa8e4bc10506180a8e4f4fd9
Размер: 536.36 МБ (562 417 073 байт)
   Стать Автором раздачи
   
Цитата
  • Похожие торренты
    Ответы
    Просмотры
    Последнее сообщение

Вернуться в Поп-музыка (Hi-Res stereo)

Кто сейчас на конференции

Сейчас эту тему просматривают: нет зарегистрированных пользователей и гости: 1