[TR24][OF] Marike Jager - Celia Trigger - 2008/2019 (Pop, Alternative, Indie)

 Статистика раздачи 
Размер: 805.9 МБ   |  Зарегистрирован: 16 фев 2019, 12:15   |   .torrent скачан: 0 раз
Сидеров: 0  [ 0 байт/сек ]     Личеров: 0  [ 0 байт/сек ]  
  
Аватара пользователя
Главный редактор
Главный редактор
 
Раздал: 90.01 ТБ
Скачал: 3.78 ТБ
Ратио: 24.248
Сообщения: 273621
Стаж: 9 лет 1 месяц 12 дней
Откуда: Санкт-Петербург

Marike Jager - Celia Trigger


Формат записи/Источник записи: [TR24][OF]
Наличие водяных знаков: Нет
Издание: Remastered
Год издания/переиздания диска: 2008/2019
Жанр: Pop, Alternative, Indie
Издатель (лейбл): V2 Records Benelux
Продолжительность: 00:40:17
Наличие сканов в содержимом раздачи: Только обложка альбома
Контейнер: FLAC (*.flac)
Тип рипа: tracks
Разрядность: 24/88.2
Формат: PCM
Количество каналов: 2.0
Источник (релизер): qobuz.com
Треклист
01. Celia Trigger (3:31)
02. Winner (3:46)
03. Honey, Honey (2:48)
04. Radio (3:00)
05. Like You (2:46)
06. She Only Knows (3:52)
07. Easy (4:46)
08. Monday (2:28)
09. Lover (3:06)
10. My Gold (2:54)
11. Bucket Full of Ice (1:54)
12. The Leaves (3:43)
13. Runner at the Gate (1:44)
Код: Выделить всё
foobar2000 1.4 / Dynamic Range Meter 1.1.1
log date: 2019-02-12 19:46:40
--------------------------------------------------------------------------------
Analyzed: Marike Jager / Celia Trigger
--------------------------------------------------------------------------------
DR         Peak         RMS     Duration Track
--------------------------------------------------------------------------------
DR8        0.00 dB    -9.96 dB      3:31 01-Celia Trigger
DR7       -0.04 dB   -10.50 dB      3:46 02-Winner
DR8        0.00 dB   -10.59 dB      2:48 03-Honey, Honey
DR7        0.00 dB    -8.36 dB      3:00 04-Radio
DR10      -0.04 dB   -14.07 dB      2:46 05-Like You
DR9       -0.04 dB   -12.01 dB      3:52 06-She Only Knows
DR7        0.00 dB   -10.80 dB      4:46 07-Easy
DR9        0.00 dB   -10.92 dB      2:28 08-Monday
DR8       -0.04 dB   -11.11 dB      3:06 09-Lover
DR7        0.00 dB    -9.43 dB      2:54 10-My Gold
DR9       -0.04 dB   -12.46 dB      1:54 11-Bucket Full Of Ice
DR8       -0.02 dB   -11.92 dB      3:43 12-The Leaves
DR7       -2.51 dB   -12.55 dB      1:44 13-Runner At The Gate
--------------------------------------------------------------------------------
Number of tracks:  13
Official DR value: DR8
Samplerate:        88200 Hz
Channels:          2
Bits per sample:   24
Bitrate:           2685 kbps
Codec:             FLAC
================================================================================
With more interesting instrumentation, better playing and singing, better songs, better production and lots of different styles, this is an improvement over her 2006 debut The beauty around. She sounds just as confident on pop songs such as the title track and "Radio" as on quiet ballads on the acoustic guitar ("Winner") or the piano ("Bucket full of ice" or "Like you"). There's also still some of the jazzy folk pop of her first album with "Honey, honey". Best of all is the beautiful "Easy" with its lovely Hammond B3 and one of Marike Jager's finest vocals. Never groundbreaking, but always superbly performed and always enjoyable. Jager does here what Stevie Ann did with Closer to the heart last year: she proves that she's more than just a folk pop singer/songwriter and that if she can continue to write songs as good as these this will be a career worth following. Yes, the Netherlands has not 1 but 2 talented singer/songwriters.
Не забывайте говорить Спасибо. Не уходите с раздачи!   
Торрент: Зарегистрирован [16 фев 2019, 12:15]
Статус:
Проверен
 
.torrent скачан: 0 раз
Хэш: 3a9326d393397d6ad8cae58e43cadd02ceb358db
Размер: 805.9 МБ (845 043 896 байт)
   Стать Автором раздачи
   
Цитата
  • Похожие торренты
    Ответы
    Просмотры
    Последнее сообщение

Вернуться в Поп-музыка (Hi-Res stereo)

Кто сейчас на конференции

Сейчас эту тему просматривают: нет зарегистрированных пользователей и гости: 1