[TR24][OF] Anita Bryant - Mine Eyes Have Seen The Glory - 1966/2016 (Traditional Pop)

 Статистика раздачи 
Размер: 1.27 ГБ   |  Зарегистрирован: 14 мар 2017, 08:55   |   .torrent скачан: 0 раз
Сидеров: 0  [ 0 байт/сек ]     Личеров: 0  [ 0 байт/сек ]  
  
Аватара пользователя
Главный редактор
Главный редактор
 
Раздал: 90.01 ТБ
Скачал: 3.78 ТБ
Ратио: 24.248
Сообщения: 274856
Стаж: 9 лет 1 месяц 20 дней
Откуда: Санкт-Петербург

Anita Bryant - Mine Eyes Have Seen The Glory
Формат записи/Источник записи: [TR24][OF]
Наличие водяных знаков: Нет
Год издания/переиздания диска: 1966/2016
Жанр: Traditional Pop
Издатель (лейбл): Columbia/Legacy
Продолжительность: 34:54
Наличие сканов в содержимом раздачи: Только обложка альбома
Треклист:
01. Battle Hymn Of The Republic (4:28)
02. This Is Worth Fighting For (2:59)
03. In God We Trust (2:38)
04. The House I Live In (That's America To Me) (3:53)
05. This Is My Country (2:54)
06. The Star Spangled Banner (3:40)
07. America (2:50)
08. God Bless America (3:31)
09. The Power And The Glory (2:29)
10. America The Beautiful (2:50)
11. Onward, Christian Soldiers (2:42)
Anita Bryant - vocals
Chuck Bird - arranger, conductor
 
A popular singer of the '60s, Anita Bryant has been known as a beauty queen, a singer, a Florida citrus spokeswoman, and later an advocate against homosexuality. Her hits, which made both the British and American charts, include "'Till There Was You," "Paper Roses" and "In My Little Corner of the World."
Born in Oklahoma, Bryant's musical career began at a very early age. She first performed on stage at the age of six, and three years later she won her first talent show. It was after this victory that she won a spot on Arthur Godfrey's talent show on television. From there her musical career blossomed, and the singer -- known as Oklahoma's "Red Feather Girl" -- made her recording debut in 1956 with the single "Sinful to Flirt."
In 1958, she was crowned Miss Oklahoma and moved on to the Miss America pageant, where she came in third thanks to her musical talents. "'Till There Was You" from The Music Man was Anita Bryant's first chart-topping hit in 1959. She released three albums on the Carlton label (Anita Bryant, In Your Home Tonight and In My Little Corner of the World), and hit number one again in 1960 with Bert Kaempfert's "Wonderland of Night." (Marie Osmond later recorded another of Bryant's songs, "In My Little Corner of the World," for her own hit.)
In 1962, Anita Bryant switched to Columbia and recorded a series of inspirational titles as well as standard pop albums. During the '70s, she recorded several albums for the religious label Wood, though the transition never lacked the boisterous singing style that had already been associated with her.
In the '80s and '90s, Anita Bryant's interests again changed. Although she still enjoyed singing and performing, she became an advocate against homosexuality and began working as a motivational speaker. She continued to sing in numerous performances throughout the season at The Anita Bryant Theater in Branson, MO, and later at her own theater in Pigeon Fork, TN.

Контейнер: FLAC (*.flac)
Тип рипа: tracks
Разрядность: 24/192
Количество каналов: 2.0
Код: Выделить всё
foobar2000 1.3.9 / Dynamic Range Meter 1.1.1
log date: 2017-03-14 11:45:45
--------------------------------------------------------------------------------
Analyzed: Anita Bryant / Mine Eyes Have Seen The Glory
--------------------------------------------------------------------------------
DR         Peak         RMS     Duration Track
--------------------------------------------------------------------------------
DR10      -0.13 dB   -14.03 dB      4:28 01-Battle Hymn Of The Republic
DR10      -0.13 dB   -13.50 dB      2:59 02-This Is Worth Fighting For
DR10      -0.13 dB   -14.43 dB      2:38 03-In God We Trust
DR12      -0.13 dB   -15.72 dB      3:53 04-The House I Live In (That's America To Me)
DR11      -0.13 dB   -13.37 dB      2:54 05-This Is My Country
DR12      -0.13 dB   -16.15 dB      3:40 06-The Star Spangled Banner
DR10      -0.59 dB   -14.01 dB      2:50 07-America
DR11      -0.25 dB   -15.85 dB      3:31 08-God Bless America
DR10      -0.13 dB   -14.40 dB      2:29 09-The Power And The Glory
DR11      -0.24 dB   -15.18 dB      2:50 10-America The Beautiful
DR11      -0.13 dB   -13.67 dB      2:42 11-Onward, Christian Soldiers
--------------------------------------------------------------------------------
Number of tracks:  11
Official DR value: DR11
Samplerate:        192000 Hz
Channels:          2
Bits per sample:   24
Bitrate:           5326 kbps
Codec:             FLAC
================================================================================
Источник: hdtracks.com[/spoiler]
Не забывайте говорить Спасибо. Не уходите с раздачи!   
Торрент: Зарегистрирован [14 мар 2017, 08:55]
Статус:
Проверен
 
.torrent скачан: 0 раз
Хэш: 47b4fe0c0e9b60460b29281e07820cb2b173a679
Размер: 1.27 ГБ (1 359 042 424 байт)
   Стать Автором раздачи
   
Цитата

Вернуться в Поп-музыка (Hi-Res stereo)

Кто сейчас на конференции

Сейчас эту тему просматривают: нет зарегистрированных пользователей и гости: 1