[TR24][OF] Jerry Vale - The Impossible Dream - 1966/2017 (Pop, Vocal)

 Статистика раздачи 
Размер: 1.13 ГБ   |  Зарегистрирован: 26 июл 2017, 19:43   |   .torrent скачан: 0 раз
Сидеров: 0  [ 0 байт/сек ]     Личеров: 0  [ 0 байт/сек ]  
  
Аватара пользователя
Главный редактор
Главный редактор
 
Раздал: 90.01 ТБ
Скачал: 3.78 ТБ
Ратио: 24.248
Сообщения: 274106
Стаж: 9 лет 1 месяц 17 дней
Откуда: Санкт-Петербург

Jerry Vale - The Impossible Dream
Формат записи/Источник записи: [TR24][OF]
Наличие водяных знаков: Нет
Год издания/переиздания диска: 1966/2017
Жанр: Pop, Vocal
Издатель (лейбл): Columbia/Legacy
Продолжительность: 34:40
Наличие сканов в содержимом раздачи: Только обложка альбома
Треклист:
01. Smile (3:05)
02. What Now My Love (3:20)
03. Strangers In The Night (2:32)
04. Gigi (3:26)
05. Three Coins In The Fountain (3:58)
06. The Impossible Dream (2:32)
07. Somewhere, My Love (3:13)
08. The Shadow Of Your Smile (3:07)
09. More (3:19)
10. My Foolish Heart (3:12)
11. Dommage, Dommage (Too Bad, Too Bad) (2:55)
 
Jerry Vale (born Genaro Louis Vitaliano) was an Italian-American singer and actor. He is reached the top of the pop charts in the 1950s and '60s with his interpretations of romantic ballads. This album from 1967, arguably one of his best, a must have for any fan or collector.
erry Vale's beautiful high-tenor voice graced many of the most enchanting pop songs of the '50s and '60s, including a parade of Italian-American favorites like "Innamorata (Sweetheart)," "Volare," "Amore, Scusami," and his signature song, "Al Di La." Vale, born Genaro Louis Vitaliano in 1932, learned the Italian repertoire from an early age; his mother often sang around the house and trotted out the old songs at extended-family gatherings. While shining shoes at a local barber shop at the age of 11, young Vitaliano began singing popular songs for customers while he worked. He was soon sent to a vocal coach, where he learned piano as well as voice.

Контейнер: FLAC (*.flac)
Тип рипа: tracks
Разрядность: 24/192
Количество каналов: 2.0
Код: Выделить всё
foobar2000 1.3.9 / Dynamic Range Meter 1.1.1
log date: 2017-07-26 21:51:19
--------------------------------------------------------------------------------
Analyzed: Jerry Vale / The Impossible Dream
--------------------------------------------------------------------------------
DR         Peak         RMS     Duration Track
--------------------------------------------------------------------------------
DR8       -0.02 dB   -10.47 dB      3:05 01-Smile
DR9       -0.02 dB   -11.01 dB      3:20 02-What Now My Love
DR9       -0.02 dB    -9.87 dB      2:32 03-Strangers In The Night
DR9       -0.02 dB   -11.11 dB      3:26 04-Gigi
DR9       -0.02 dB   -11.42 dB      3:58 05-Three Coins In The Fountain
DR9       -0.02 dB   -10.91 dB      2:32 06-The Impossible Dream
DR9       -0.02 dB   -11.17 dB      3:13 07-Somewhere, My Love
DR9       -0.22 dB   -12.17 dB      3:07 08-The Shadow Of Your Smile
DR9       -0.02 dB   -11.22 dB      3:19 09-More
DR9       -0.02 dB   -11.18 dB      3:12 10-My Foolish Heart
DR9       -0.43 dB   -12.83 dB      2:55 11-Dommage, Dommage (Too Bad, Too Bad)
--------------------------------------------------------------------------------
Number of tracks:  11
Official DR value: DR9
Samplerate:        192000 Hz
Channels:          2
Bits per sample:   24
Bitrate:           4047 kbps
Codec:             FLAC
================================================================================
Источник: hdtracks.com[/spoiler]
Не забывайте говорить Спасибо. Не уходите с раздачи!   
Торрент: Зарегистрирован [26 июл 2017, 19:43]
Статус:
Проверен
 
.torrent скачан: 0 раз
Хэш: ae5408b3a4ff3f43cd1b70973e2a0a424ffe112a
Размер: 1.13 ГБ (1 209 111 806 байт)
   Стать Автором раздачи
   
Цитата
  • Похожие торренты
    Ответы
    Просмотры
    Последнее сообщение

Вернуться в Поп-музыка (Hi-Res stereo)

Кто сейчас на конференции

Сейчас эту тему просматривают: нет зарегистрированных пользователей и гости: 1