[TR24][OF] Joe Harnell - Golden Piano Hits - 1966/2016 (Pop, Instrumental)

 Статистика раздачи 
Размер: 1.05 ГБ   |  Зарегистрирован: 22 апр 2017, 16:11   |   .torrent скачан: 0 раз
Сидеров: 0  [ 0 байт/сек ]     Личеров: 0  [ 0 байт/сек ]  
  
Аватара пользователя
Главный редактор
Главный редактор
Я на сайте
 
Раздал: 90.01 ТБ
Скачал: 3.78 ТБ
Ратио: 24.248
Сообщения: 273585
Стаж: 9 лет 1 месяц 11 дней
Откуда: Санкт-Петербург

Joe Harnell - Golden Piano Hits
Формат записи/Источник записи: [TR24][OF]
Наличие водяных знаков: Нет
Год издания/переиздания диска: 1966/2016
Жанр: Pop, Instrumental
Издатель (лейбл): Columbia/Legacy
Продолжительность: 28:29
Наличие сканов в содержимом раздачи: Только обложка альбома
Треклист:
01. Misirlou (2:34)
02. Alley Cat (2:43)
03. Sunrise Serenade (2:08)
04. Near You (2:03)
05. Cast Your Fate To The Winds (2:15)
06. Take Five (2:28)
07. Autumn Leaves (2:23)
08. The 'In' Crowd (2:17)
09. Polonaise (2:31)
10. Canadian Sunset (2:46)
11. Snowfall (2:10)
12. A Walk In The Black Forest (2:09) 

Контейнер: FLAC (*.flac)
Тип рипа: tracks
Разрядность: 24/192
Количество каналов: 2.0
Код: Выделить всё
foobar2000 1.3.9 / Dynamic Range Meter 1.1.1
log date: 2017-04-22 18:49:42
--------------------------------------------------------------------------------
Analyzed: Joe Harnell / Golden Piano Hits
--------------------------------------------------------------------------------
DR         Peak         RMS     Duration Track
--------------------------------------------------------------------------------
DR11      -0.02 dB   -12.66 dB      2:34 01-Misirlou
DR11      -0.53 dB   -13.70 dB      2:43 02-Alley Cat
DR11      -0.02 dB   -12.45 dB      2:08 03-Sunrise Serenade
DR12      -0.02 dB   -13.20 dB      2:03 04-Near You
DR11      -0.05 dB   -13.58 dB      2:15 05-Cast Your Fate To The Winds
DR11      -0.02 dB   -12.84 dB      2:28 06-Take Five
DR11      -0.02 dB   -13.02 dB      2:23 07-Autumn Leaves
DR11      -0.02 dB   -13.22 dB      2:17 08-The 'In' Crowd
DR11      -0.02 dB   -13.03 dB      2:31 09-Polonaise
DR11      -0.33 dB   -13.94 dB      2:46 10-Canadian Sunset
DR10      -0.23 dB   -13.76 dB      2:10 11-Snowfall
DR11      -0.02 dB   -12.54 dB      2:09 12-A Walk In The Black Forest
--------------------------------------------------------------------------------
Number of tracks:  12
Official DR value: DR11
Samplerate:        192000 Hz
Channels:          2
Bits per sample:   24
Bitrate:           5328 kbps
Codec:             FLAC
================================================================================
Источник: hdtracks.com[/spoiler]
Не забывайте говорить Спасибо. Не уходите с раздачи!   
Торрент: Зарегистрирован [22 апр 2017, 16:11]
Статус:
Проверен
 
.torrent скачан: 0 раз
Хэш: c63f19889bb5ba2f788631c67dbede4e6f8d671d
Размер: 1.05 ГБ (1 123 958 036 байт)
   Стать Автором раздачи
   
Цитата
  • Похожие торренты
    Ответы
    Просмотры
    Последнее сообщение

Вернуться в Поп-музыка (Hi-Res stereo)

Кто сейчас на конференции

Сейчас эту тему просматривают: нет зарегистрированных пользователей и гости: 1