[TR24][OF] The Norman Luboff Choir - The Latin Luboff (Reissue) - 1966/2016 (Vocal, Pop, Easy Listening)

 Статистика раздачи 
Размер: 1.19 ГБ   |  Зарегистрирован: 27 сен 2017, 10:57   |   .torrent скачан: 0 раз
Сидеров: 0  [ 0 байт/сек ]     Личеров: 0  [ 0 байт/сек ]  
  
Аватара пользователя
Главный редактор
Главный редактор
Я на сайте
 
Раздал: 90.01 ТБ
Скачал: 3.78 ТБ
Ратио: 24.248
Сообщения: 273585
Стаж: 9 лет 1 месяц 11 дней
Откуда: Санкт-Петербург

The Norman Luboff Choir - The Latin Luboff
Формат записи/Источник записи: [TR24][OF]
Наличие водяных знаков: Нет
Издание: Reissue
Год издания/переиздания диска: 1966/2016
Жанр: Vocal, Pop, Easy Listening
Издатель (лейбл): RCA/Legacy
Продолжительность: 33:22
Наличие сканов в содержимом раздачи: Только обложка альбома
Треклист:
01. Yours (Quieréme Mucho) (2:33)
02. Sarah's Samba (2:43)
03. Watch What Happens (2:51)
04. The Peanut Vendor (El Manisero) (1:54)
05. Be Mine Tonight (Noche de Ronda) (4:02)
06. Perhaps, Perhaps, Perhaps (Quizás, Quizás, Quizás) (2:22)
07. Sunset And Moonrise (2:45)
08. El Cumbanchero (2:19)
09. The Street Of Stars (O Caminho Das Estrelas) (2:44)
10. Quiet Nights (Corcovado) (3:12)
11. As I Do Now (Sim) (2:52)
12. Carnival (Manhã De Carnival) (3:05)
 
Norman Luboff (May 14, 1917 - September 22, 1987) was an American music arranger, music publisher, and choir director. Luboff was the founder and conductor of the Norman Luboff Choir, one of the leading choral groups of the 1950s, 60s and 70s. The choral group toured yearly from 1963 to 1987, and recorded more than seventy-five albums. The holiday albums Songs of Christmas (1956) and Christmas with the Norman Luboff Choir (1964) were perennial bestsellers for years. Luboff and his choir won the 1961 Grammy Award for Best Performance by a Chorus.

Контейнер: FLAC (*.flac)
Тип рипа: tracks
Разрядность: 24/192
Формат: PCM
Количество каналов: 2.0
Код: Выделить всё
foobar2000 1.3.9 / Dynamic Range Meter 1.1.1
log date: 2017-09-27 13:49:31
--------------------------------------------------------------------------------
Analyzed: The Norman Luboff Choir / The Latin Luboff
--------------------------------------------------------------------------------
DR         Peak         RMS     Duration Track
--------------------------------------------------------------------------------
DR10      -2.77 dB   -16.90 dB      2:33 01-Yours (Quieréme Mucho)
DR10      -1.18 dB   -14.39 dB      2:43 02-Sarah's Samba
DR10      -2.45 dB   -15.15 dB      2:51 03-Watch What Happens
DR10      -0.29 dB   -13.31 dB      1:54 04-The Peanut Vendor (El Manisero)
DR11      -1.54 dB   -16.43 dB      4:02 05-Be Mine Tonight (Noche de Ronda)
DR10      -2.01 dB   -15.54 dB      2:22 06-Perhaps, Perhaps, Perhaps (Quizás, Quizás, Quizás)
DR11      -0.59 dB   -14.33 dB      2:45 07-Sunset And Moonrise
DR11      -0.10 dB   -14.15 dB      2:19 08-El Cumbanchero
DR9       -1.81 dB   -13.50 dB      2:44 09-The Street Of Stars (O Caminho Das Estrelas)
DR10      -2.02 dB   -15.44 dB      3:12 10-Quiet Nights (Corcovado)
DR10      -1.13 dB   -13.68 dB      2:52 11-As I Do Now (Sim)
DR10      -1.53 dB   -14.64 dB      3:05 12-Carnival (Manhã De Carnival)
--------------------------------------------------------------------------------
Number of tracks:  12
Official DR value: DR10
Samplerate:        192000 Hz
Channels:          2
Bits per sample:   24
Bitrate:           5124 kbps
Codec:             FLAC
================================================================================
Источник: hdtracks.com[/spoiler]
Не забывайте говорить Спасибо. Не уходите с раздачи!   
Торрент: Зарегистрирован [27 сен 2017, 10:57]
Статус:
Проверен
 
.torrent скачан: 0 раз
Хэш: 47cb4fd86f11b00056532f0419165b3e818ef75b
Размер: 1.19 ГБ (1 278 177 484 байт)
   Стать Автором раздачи
   
Цитата

Вернуться в Поп-музыка (Hi-Res stereo)

Кто сейчас на конференции

Сейчас эту тему просматривают: нет зарегистрированных пользователей и гости: 1