[TR24][OF] Jane Morgan - Kiss Tomorrow Goodbye - 1967/2017 (Traditional Pop, Easy Listening, Oldies)

 Статистика раздачи 
Размер: 578.19 МБ   |  Зарегистрирован: 03 янв 2018, 13:41   |   .torrent скачан: 0 раз
Сидеров: 0  [ 0 байт/сек ]     Личеров: 0  [ 0 байт/сек ]  
  
Аватара пользователя
Главный редактор
Главный редактор
 
Раздал: 90.01 ТБ
Скачал: 3.78 ТБ
Ратио: 24.248
Сообщения: 274043
Стаж: 9 лет 1 месяц 16 дней
Откуда: Санкт-Петербург

Jane Morgan - Kiss Tomorrow Goodbye
Формат записи/Источник записи: [TR24][OF]
Наличие водяных знаков: Нет
Год издания/переиздания диска: 1967/2017
Жанр: Traditional Pop, Easy Listening, Oldies
Издатель (лейбл): Epic/Legacy
Продолжительность: 25:54
Наличие сканов в содержимом раздачи: Только обложка альбома
Треклист:
01. Kiss Tomorrow Goodbye (2:26)
02. I Will Wait For You (from the Motion Picture “The Umbrellas Of Cherbourg”) (2:07)
03. You Gotta Have A Heart (2:58)
04. Little Hands (from the Musical Production “Anya”) (2:27)
05. Everyone Come To My Party (2:19)
06. I Want To Be With You (from the Musical Production “Golden Boy”) (2:45)
07. The Lovers (2:49)
08. Love Me True (from the Motion Picture “Cast A Giant Shadow”) (3:11)
09. Now And Forever (2:30)
10. Waiting The Streets In The Rain (2:21) 

Контейнер: FLAC (*.flac)
Тип рипа: tracks
Разрядность: 24/96
Формат: PCM
Количество каналов: 2.0
Код: Выделить всё
foobar2000 1.3.9 / Dynamic Range Meter 1.1.1
log date: 2018-01-03 16:08:39
--------------------------------------------------------------------------------
Analyzed: Jane Morgan / Kiss Tomorrow Goodbye
--------------------------------------------------------------------------------
DR         Peak         RMS     Duration Track
--------------------------------------------------------------------------------
DR10      -0.33 dB   -13.36 dB      2:26 01-Kiss Tomorrow Goodbye
DR10      -0.08 dB   -13.76 dB      2:07 02-I Will Wait For You (from the Motion Picture “The Umbrellas Of Cherbourg”)
DR11      -0.13 dB   -13.14 dB      2:58 03-You Gotta Have A Heart
DR9       -0.88 dB   -12.98 dB      2:27 04-Little Hands (from the Musical Production “Anya”)
DR11       0.00 dB   -12.88 dB      2:19 05-Everyone Come To My Party
DR9       -1.32 dB   -13.17 dB      2:45 06-I Want To Be With You (from the Musical Production “Golden Boy”)
DR10      -2.69 dB   -15.11 dB      2:49 07-The Lovers
DR10      -0.81 dB   -14.83 dB      3:11 08-Love Me True (from the Motion Picture “Cast A Giant Shadow”)
DR9       -1.81 dB   -13.45 dB      2:30 09-Now And Forever
DR11      -1.86 dB   -14.76 dB      2:21 10-Waiting The Streets In The Rain
--------------------------------------------------------------------------------
Number of tracks:  10
Official DR value: DR10
Samplerate:        96000 Hz
Channels:          2
Bits per sample:   24
Bitrate:           3150 kbps
Codec:             FLAC
================================================================================
Источник: i-classical.com[/spoiler]
Не забывайте говорить Спасибо. Не уходите с раздачи!   
Торрент: Зарегистрирован [03 янв 2018, 13:41]
Статус:
Проверен
 
.torrent скачан: 0 раз
Хэш: 2f1ae9f5939130c7f088ca98d8146e0806cb2ffb
Размер: 578.19 МБ (606 274 346 байт)
   Стать Автором раздачи
   
Цитата

Вернуться в Поп-музыка (Hi-Res stereo)

Кто сейчас на конференции

Сейчас эту тему просматривают: нет зарегистрированных пользователей и гости: 1