[TR24][OF] Rouvaun - The Sound Of Rouvaun - 1967/2017 (Vocal, Pop, Easy Listening, Stage & Screen, Oldies)

 Статистика раздачи 
Размер: 1.16 ГБ   |  Зарегистрирован: 24 янв 2018, 18:07   |   .torrent скачан: 0 раз
Сидеров: 0  [ 0 байт/сек ]     Личеров: 0  [ 0 байт/сек ]  
  
Аватара пользователя
Главный редактор
Главный редактор
Я на сайте
 
Раздал: 90.01 ТБ
Скачал: 3.78 ТБ
Ратио: 24.248
Сообщения: 273922
Стаж: 9 лет 1 месяц 15 дней
Откуда: Санкт-Петербург

Rouvaun - The Sound Of Rouvaun
Формат записи/Источник записи: [TR24][OF]
Наличие водяных знаков: Нет
Год издания/переиздания диска: 1967/2017
Жанр: Vocal, Pop, Easy Listening, Stage & Screen, Oldies
Издатель (лейбл): RCA Victor/Legacy
Продолжительность: 30:28
Наличие сканов в содержимом раздачи: Только обложка альбома
Треклист:
01. This Is My Song (From “A Countess From Hong Kong”) (2:10)
02. I Want You More (2:22)
03. Our Concerto (2:23)
04. When You're In Love (2:34)
05. I Will Wait For You (Love Theme from “The Umbrellas Of Cherbourg”) (2:53)
06. Vesti La Giubba (From “Pagliacci”) (2:49)
07. Love That Lasts Forever (2:33)
08. My Own True Love (From The Motion Picture “Gone With The Wind”) (2:55)
09. Somewhere My Love (Lara's Theme from “Doctor Zhivago”) (3:31)
10. The Impossible Dream (The Quest) (From The Musical “Man Of Mancha”) (3:16)
11. E Lucevan Le Stelle (From “Tosca”) (3:01)
 
Rouvaun (1932–1975) was born Jim Haun in Bingham, Utah. A child singer with the Mormon Tabernacle Choir in Salt Lake City, he went on to study voice at the Los Angeles Conservatory of Music and perform with the Beverly Hills Opera Company. Nonetheless, he remained a struggling woodworker studying voice. Rouvaun was a virtual unknown until February 5, 1967, when he appeared in Las Vegas as the headline singer leading the 100-person Frederick Apcar French stage review Casino De Paris at the Dunes Hotel.[citation needed] His first record label, KALAMO, described him on his debut album cover as "The World's Greatest Singer". Nicknamed "The Vocal Vesuvius", Rouvaun continued performing on stage to sellout crowds and recorded a number of albums (see below). His career seemed to be blossoming until tragedy struck in 1975, when Rouvaun collapsed and died at age 43 due to massive internal hemorrhaging. Apparently the strain on his vocal cords had caused his esophagus to rupture. Rouvaun's rise to stardom was not by accident. His first vocal coach was Mario Chamlee, a famed tenor among the many who tried to succeed Enrico Caruso at the Metropolitan Opera in the 1920s. Rouvaun then studied with Mario Silva, acclaimed voice coach of Mario Lanza. His singing career led to big city and foreign concerts. His hobbies included foreign cars, riding his motorcycle, target shooting, listening to jazz, and painting landscapes and seascapes in oil. He was marketed and promoted by Tony Alamo, who later became a notorious Christian minister. Rouvaun had a potential movie contract in the works to star in the life story of Mario Lanza and had the approval of the Lanza family, although the movie with Rouvaun never happened. Rouvaun's RCA Victor contract called for several long play records and singles to be recorded and released yearly. He left behind a wife and children. One son, Jimmy Haun, went on to become guitarist with the rock group Air Supply. Jimmy Haun's daughter and Rouvaun's granddaughter is the television actress Lindsey Haun (born 1984). Rouvaun can be seen and heard here on television and audio clips. An official Rouvaun website put up by Rouvaun's family no longer exists, but a Rouvaun tribute website can still be found on Myspace featuring Rouvaun's music, biography and many photographs from his career (including his stint at the Dunes). A Rouvaun Fan Club existed with many chapters, and comedian Jack Benny was President of the Burbank Chapter, according to program notes on the Rouvaun Album From the Heart of a Man.

Контейнер: FLAC (*.flac)
Тип рипа: tracks
Разрядность: 24/192
Формат: PCM
Количество каналов: 2.0
Код: Выделить всё
foobar2000 1.3.9 / Dynamic Range Meter 1.1.1
log date: 2018-01-24 20:44:45
--------------------------------------------------------------------------------
Analyzed: Rouvaun / The Sound Of Rouvaun
--------------------------------------------------------------------------------
DR         Peak         RMS     Duration Track
--------------------------------------------------------------------------------
DR12      -0.02 dB   -15.91 dB      2:10 01-This Is My Song (From “A Countess From Hong Kong”)
DR9       -1.33 dB   -14.47 dB      2:22 02-I Want You More
DR10      -1.77 dB   -15.56 dB      2:23 03-Our Concerto
DR10      -0.95 dB   -16.42 dB      2:34 04-When You're In Love
DR11      -0.69 dB   -14.50 dB      2:53 05-I Will Wait For You (Love Theme from “The Umbrellas Of Cherbourg”)
DR10      -0.99 dB   -15.10 dB      2:49 06-Vesti La Giubba (From “Pagliacci”)
DR11      -1.23 dB   -15.33 dB      2:33 07-Love That Lasts Forever
DR11      -2.70 dB   -18.34 dB      2:55 08-My Own True Love (From The Motion Picture “Gone With The Wind”)
DR10      -0.70 dB   -16.33 dB      3:31 09-Somewhere My Love (Lara's Theme from “Doctor Zhivago”)
DR11      -1.40 dB   -16.31 dB      3:16 10-The Impossible Dream (The Quest) (From The Musical “Man Of Mancha”)
DR10      -0.79 dB   -15.45 dB      3:01 11-E Lucevan Le Stelle (From “Tosca”)
--------------------------------------------------------------------------------
Number of tracks:  11
Official DR value: DR11
Samplerate:        192000 Hz
Channels:          2
Bits per sample:   24
Bitrate:           5305 kbps
Codec:             FLAC
================================================================================
Источник: acousticsounds.com[/spoiler]
Не забывайте говорить Спасибо. Не уходите с раздачи!   
Торрент: Зарегистрирован [24 янв 2018, 18:07]
Статус:
Проверен
 
.torrent скачан: 0 раз
Хэш: 8a8da233a8015c4474638b251a3193ed94edc8d7
Размер: 1.16 ГБ (1 248 253 425 байт)
   Стать Автором раздачи
   
Цитата

Вернуться в Поп-музыка (Hi-Res stereo)

Кто сейчас на конференции

Сейчас эту тему просматривают: нет зарегистрированных пользователей и гости: 1