[TR24][OF] Petula Clark - Musical Moments To Remember: Petula Clark “London-Paris Connection” (Remastered) - 2018 (Pop, Oldies)

 Статистика раздачи 
Размер: 668.32 МБ   |  Зарегистрирован: 05 авг 2018, 20:08   |   .torrent скачан: 0 раз
Сидеров: 0  [ 0 байт/сек ]     Личеров: 0  [ 0 байт/сек ]  
  
Аватара пользователя
Главный редактор
Главный редактор
 
Раздал: 90.01 ТБ
Скачал: 3.78 ТБ
Ратио: 24.248
Сообщения: 273876
Стаж: 9 лет 1 месяц 14 дней
Откуда: Санкт-Петербург

Petula Clark - Musical Moments To Remember: Petula Clark “London-Paris Connection”
Формат записи/Источник записи: [TR24][OF]
Наличие водяных знаков: Нет
Издание: Remastered
Год издания/переиздания диска: 2018
Жанр: Pop, Oldies
Издатель (лейбл): Jube Legends
Продолжительность: 60:08
Наличие сканов в содержимом раздачи: Только обложка альбома
Источник: WRZmusic
Магазин: hdtracks.com
Треклист:
01. Memories Are Made Of This (2:25)
02. Roméo (Salome) (2:38)
03. The Little Shoemaker (2:18)
04. A London (2:32)
05. As Time Goes By (2:53)
06. Parce que c'est bon (2:51)
07. (Why Must I Be) Alone (2:03)
08. Je chante doucement (2:47)
09. You Are My Lucky Star (2:12)
10. Il est a toi mon coeur (2:35)
11. Gonna Find Me A Bluebird (2:33)
12. Ya Ya Twist (2:12)
13. Suddenly There's A Valley (2:37)
14. Calendar Girl (2:12)
15. I Love A Violin (2:08)
16. Les bougainvillées (2:30)
17. Fascinatin' Rhythm (2:45)
18. Si c'est oui, c'est oui (2:07)
19. Smile (2:37)
20. Jolie (2:15)
21. Darn That Dream (3:09)
22. Pardon pour notre amour (3:02)
23. Band Of Gold (2:32)
24. Bye bye, mon amour (Hello Mary Lou) (2:15) 

Контейнер: FLAC (*.flac)
Тип рипа: tracks
Разрядность: 24/48
Формат: PCM
Количество каналов: 2.0
Код: Выделить всё
foobar2000 1.3.9 / Dynamic Range Meter 1.1.1
log date: 2018-08-05 22:48:32
--------------------------------------------------------------------------------
Analyzed: Petula Clark / Musical Moments To Remember: Petula Clark “London-Paris Connection”
--------------------------------------------------------------------------------
DR         Peak         RMS     Duration Track
--------------------------------------------------------------------------------
DR11       0.00 dB   -15.62 dB      2:25 01-Memories Are Made Of This
DR10       0.00 dB   -12.94 dB      2:38 02-Roméo (Salome)
DR13      -0.08 dB   -16.42 dB      2:18 03-The Little Shoemaker
DR13       0.00 dB   -15.32 dB      2:32 04-A London
DR10       0.00 dB   -12.88 dB      2:53 05-As Time Goes By
DR11       0.00 dB   -15.15 dB      2:51 06-Parce que c'est bon
DR12       0.00 dB   -13.98 dB      2:03 07-(Why Must I Be) Alone
DR12       0.00 dB   -14.02 dB      2:47 08-Je chante doucement
DR11       0.00 dB   -12.41 dB      2:12 09-You Are My Lucky Star
DR12       0.00 dB   -15.47 dB      2:35 10-Il est a toi mon coeur
DR12       0.00 dB   -12.98 dB      2:33 11-Gonna Find Me A Bluebird
DR14       0.00 dB   -15.98 dB      2:12 12-Ya Ya Twist
DR11       0.00 dB   -13.76 dB      2:37 13-Suddenly There's A Valley
DR12       0.00 dB   -14.72 dB      2:12 14-Calendar Girl
DR11       0.00 dB   -14.06 dB      2:08 15-I Love A Violin
DR11       0.00 dB   -13.55 dB      2:30 16-Les bougainvillées
DR11       0.00 dB   -12.99 dB      2:45 17- Fascinatin' Rhythm
DR12       0.00 dB   -16.41 dB      2:07 18-Si c'est oui, c'est oui
DR11       0.00 dB   -12.99 dB      2:37 19-Smile
DR11       0.00 dB   -14.56 dB      2:15 20-Jolie
DR13       0.00 dB   -16.80 dB      3:09 21-Darn That Dream
DR11       0.00 dB   -14.71 dB      3:02 22-Pardon pour notre amour
DR11       0.00 dB   -14.10 dB      2:32 23-Band Of Gold
DR11       0.00 dB   -13.64 dB      2:15 24-Bye bye, mon amour (Hello Mary Lou)
--------------------------------------------------------------------------------
Number of tracks:  24
Official DR value: DR12
Samplerate:        48000 Hz
Channels:          2
Bits per sample:   24
Bitrate:           1601 kbps
Codec:             FLAC
================================================================================
Не забывайте говорить Спасибо. Не уходите с раздачи!   
Торрент: Зарегистрирован [05 авг 2018, 20:08]
Статус:
Проверен
 
.torrent скачан: 0 раз
Хэш: 24bde5e229cefea31ef7406606c13cd3626221e3
Размер: 668.32 МБ (700 782 776 байт)
   Стать Автором раздачи
   
Цитата

Вернуться в Поп-музыка (Hi-Res stereo)

Кто сейчас на конференции

Сейчас эту тему просматривают: нет зарегистрированных пользователей и гости: 1