[TR24][OF] Whitney Houston - I Wish You Love: More From The Bodyguard - 2017 (Pop)

 Статистика раздачи 
Размер: 846.6 МБ   |  Зарегистрирован: 17 ноя 2017, 12:42   |   .torrent скачан: 0 раз
Сидеров: 0  [ 0 байт/сек ]     Личеров: 0  [ 0 байт/сек ]  
  
Аватара пользователя
Главный редактор
Главный редактор
Я на сайте
 
Раздал: 90.01 ТБ
Скачал: 3.78 ТБ
Ратио: 24.248
Сообщения: 274792
Стаж: 9 лет 1 месяц 19 дней
Откуда: Санкт-Петербург

Whitney Houston - I Wish You Love: More From The Bodyguard
Формат записи/Источник записи: [TR24][OF]
Наличие водяных знаков: Нет
Год издания/переиздания диска: 2017
Жанр: Pop
Издатель (лейбл): Arista/Legacy
Продолжительность: 73:08
Наличие сканов в содержимом раздачи: Только обложка альбома
Треклист:
01. I Will Always Love You (Alternate Mix) (5:04)
02. I Have Nothing (Film Version) (4:56)
03. I'm Every Woman (Clivilles & Cole House Mix I Edit) (5:43)
04. Run To You (Film Version) (4:19)
05. Queen Of The Night (Film Version) (3:15)
06. Jesus Loves Me (Film Version) (with Michele Lamar Richards) (1:07)
07. Jesus Loves Me (A Capella Version) (4:53)
08. I Will Always Love You (Film Version) (4:35)
09. I Have Nothing (Live from Brunei) (6:53)
10. Run To You (Live from The Bodyguard Tour) (4:47)
11. Jesus Loves Me / He's Got The Whole World In His Hands (Live from The Bodyguard Tour) (10:39)
12. Queen Of The Night (Live from The Bodyguard Tour) (5:36)
13. I Will Always Love You (Live from The Bodyguard Tour) (6:15)
14. I'm Every Woman (Live from The Bodyguard Tour) (5:07)
 
In honor of the 25th anniversary of the iconic film The Bodyguard, Legacy Recordings, is celebrating its legacy with the release of a brand new collection of Whitney Houston live and studio recordings entitled “I Wish You Love: More From The Bodyguard”. “I Wish You Love: More From The Bodyguard” is an essential new Whitney Houston collection bringing together a variety of live and studio recordings from The Bodyguard (many previously unreleased or unavailable), including an alternate mix of “I Will Always Love You,” which features a spoken word intro of Whitney as Rachel Marron, an A Capella version of “Jesus Loves Me,” which has never been heard before and a live recording from The Bodyguard World Tour 1993-1995 of “Run To You,” which Whitney rarely performed. Also included are film and live versions of “I Will Always Love” You,” “I Have Nothing,” “Queen of The Night” and more.

Контейнер: FLAC (*.flac)
Тип рипа: tracks
Разрядность: 24/48
Формат: PCM
Количество каналов: 2.0
Код: Выделить всё
foobar2000 1.3.9 / Dynamic Range Meter 1.1.1
log date: 2017-11-17 15:33:10
--------------------------------------------------------------------------------
Analyzed: Whitney Houston / I Wish You Love: More From The Bodyguard
--------------------------------------------------------------------------------
DR         Peak         RMS     Duration Track
--------------------------------------------------------------------------------
DR9       -0.24 dB   -14.83 dB      5:04 01-I Will Always Love You (Alternate Mix)
DR9       -1.57 dB   -13.77 dB      4:56 02-I Have Nothing (Film Version)
DR11      -1.00 dB   -14.24 dB      5:43 03-I'm Every Woman (Clivilles & Cole House Mix I Edit)
DR10      -1.47 dB   -14.45 dB      4:19 04-Run To You (Film Version)
DR10      -1.46 dB   -12.26 dB      3:15 05-Queen Of The Night (Film Version)
DR13      -3.16 dB   -23.60 dB      1:07 06-Jesus Loves Me (Film Version) (with Michele Lamar Richards)
DR9       -4.23 dB   -17.21 dB      4:53 07-Jesus Loves Me (A Capella Version)
DR7       -0.95 dB   -12.57 dB      4:35 08-I Will Always Love You (Film Version)
DR10      -1.72 dB   -14.87 dB      6:53 09-I Have Nothing (Live from Brunei)
DR9       -1.71 dB   -14.33 dB      4:47 10-Run To You (Live from The Bodyguard Tour)
DR10      -2.13 dB   -17.19 dB     10:39 11-Jesus Loves Me / He's Got The Whole World In His Hands (Live from The Bodyguard Tour)
DR8       -2.16 dB   -12.67 dB      5:36 12-Queen Of The Night (Live from The Bodyguard Tour)
DR11      -1.44 dB   -17.59 dB      6:15 13-I Will Always Love You (Live from The Bodyguard Tour)
DR9       -0.62 dB   -12.48 dB      5:07 14-I'm Every Woman (Live from The Bodyguard Tour)
--------------------------------------------------------------------------------
Number of tracks:  14
Official DR value: DR10
Samplerate:        48000 Hz
Channels:          2
Bits per sample:   24
Bitrate:           1807 kbps
Codec:             FLAC
================================================================================
Источник: 7digital.com[/spoiler]
Не забывайте говорить Спасибо. Не уходите с раздачи!   
Торрент: Зарегистрирован [17 ноя 2017, 12:42]
Статус:
Проверен
 
.torrent скачан: 0 раз
Хэш: 333ffbd36f0a17a1f26505fdd0b2291207b17f1a
Размер: 846.6 МБ (887 725 124 байт)
   Стать Автором раздачи
   
Цитата
  • Похожие торренты
    Ответы
    Просмотры
    Последнее сообщение

Вернуться в Поп-музыка (Hi-Res stereo)

Кто сейчас на конференции

Сейчас эту тему просматривают: нет зарегистрированных пользователей и гости: 1