[TR24][OF] Robbie Williams - The Heavy Entertainment Show (Deluxe edition) - 2016 (Pop)

 Статистика раздачи 
Размер: 737.99 МБ   |  Зарегистрирован: 13 фев 2017, 22:15   |   .torrent скачан: 0 раз
Сидеров: 0  [ 0 байт/сек ]     Личеров: 0  [ 0 байт/сек ]  
  
Аватара пользователя
Главный редактор
Главный редактор
 
Раздал: 90.01 ТБ
Скачал: 3.78 ТБ
Ратио: 24.248
Сообщения: 274788
Стаж: 9 лет 1 месяц 19 дней
Откуда: Санкт-Петербург

Robbie Williams The Heavy Entertainment Show
Формат записи/Источник записи: [TR24][OF]
Наличие водяных знаков: Нет
Издание: Deluxe edition
Год издания/переиздания диска: 2016
Жанр: Pop
Издатель(лейбл): Columbia
Продолжительность: 61:12
Наличие сканов в содержимом раздачи: Только обложка альбома
Треклист:
01. The Heavy Entertainment Show (3:23)
02. Party Like a Russian (3:03)
03. Mixed Signals (3:59)
04. Love My Life (3:28)
05. Motherfucker (4:18)
06. Bruce Lee (3:13)
07. Sensitive (3:16)
08. David's Song (4:14)
09. Pretty Woman (2:56)
10. Hotel Crazy (with Rufus Wainwright) (4:25)
11. Sensational (3:48)
12. When You Know (4:21)
13. Time On Earth (4:51)
14. I Don't Want to Hurt You (with John Grant) (4:19)
15. Best Intentions (3:44)
16. Marry Me (3:54)
 
A&R – Chris Briggs
Arranged By – Guy Chambers (tracks: 1, 2, 8, 10, 11), Ryan Quigley (tracks: 1), Sergei Prokofiev (tracks: 2), Steve Sidwell (tracks: 10)
Arranged By [Choir and Horns] – Guy Chambers (tracks: 2)
Art Direction – Tom Hingston Studio
Design – Tom Hingston Studio
Edited By – Graham Archer (tracks: 4)
Engineer – Andreas Eide Larsen (tracks: 4), Robbie Nelson (tracks: 4), Robert Root (tracks: 3), Sam Miller (tracks: 9), Stuart Price (tracks: 3, 6)
Engineer [Additional] – Felix Rashman (tracks: 1, 2, 5, 10, 11), Felix Rashman (tracks: 8), Graham Archer (tracks: 4), John Prestage (tracks: 8)
Engineer [Drums] – John Spiker (tracks: 6)
Engineer [Orchestra] – Stuart Price (tracks: 1, 2, 8, 10, 11)
Engineer [Pro Tools] – Steve Vealey (tracks: 4, 9)
Management – ie Music Ltd.
Mastered By – Chris Gehringer (tracks: 1 to 3, 5 to 8, 10 to 11), Joe LaPorta (tracks: 4, 9)
Mixed By – Michael H. Brauer (tracks: 4, 9), Richard Flack (tracks: 1, 2, 5, 8, 10, 11), Stuart Price (tracks: 3, 6, 7)
Mixed By [Assistant] – Steve Vealey (tracks: 4, 9)
Photography By – Julian Broad
Producer – Guy Chambers (tracks: 1, 2, 5, 8, 10, 11), Johnny McDaid (tracks: 4), Richard Flack (tracks: 1, 2, 5, 8, 10, 11), Steve Robson (tracks: 9), Stuart Price (tracks: 3, 6, 7)
Recorded By – Richard Flack (tracks: 1, 2, 5, 8, 10, 11)
Establishing himself as the last of a particular breed, Robbie Williams makes his pop comeback on The Heavy Entertainment Show. Aptly titled, Williams is entertaining as ever, a consummate showman until the end. The album is a grab bag of ideas, darting here and there in its pursuit of a hit. However, this isn't too much of a distraction. Mr. Entertainment and his bombast do not disappoint. The Heavy Entertainment Show is his most invigorated album in years, a truer return to the pop realm than 2012's Take the Crown. Here, Williams dresses up his antics in expert production with plenty of cheekiness to spare. As the show begins, Williams announces "the charisma's non-negotiable" and "I'm about to strip and you're my pole." He's cocky, crass, and utterly engaging as a chorus of backup singers add, "He would sell his children for a hit in Belgium!" Few pop stars can pull this off, yet from Williams, it's almost comforting to see him once again embrace his braggadocious ringmaster persona. Longtime producer Guy Chambers makes his return to Williams' circus, along with a number of high-profile guests. The Killers-penned "Mixed Signals" is an open-road epic that sounds like a Battle Born castaway, while Ed Sheeran and Benny Blanco join forces for the stomp-twang Avicii-lite "Pretty Woman." Rufus Wainwright contributes songwriting and his velvety voice to a trio of brassy tunes, kick-stepping alongside Williams on the aforementioned title track, as well as "Hotel Crazy" and the grand outro "Sensational." "David's Song" - penned by Jewel and Kara DioGuardi - is a heart-rending soft rock ballad that overwhelms with a powerful closing guitar solo and orchestral swell. However, it's producer Stuart Price who proves most valuable. In addition to the Killers track, he injects the album with a pair of addictive standout synth numbers. Highlight "Bruce Lee" is a Bowie-stomping glam number that struts its way through the pack, while "Sensitive" amps up the sensuality with echoing synths, handclaps, and juicy bass. Elsewhere, there are a couple love-or-hate tracks that stick out. The Prokofiev-sampling lead single "Party Like a Russian" - which sounds like something Muse would use to dramatically start a show - is big on drama and creativity, but might rub some listeners the wrong way with its cultural generalities. Meanwhile, the boldly titled "Motherfucker" seems like it's trying a little too hard to shock, yet it's the finest example of Williams' schtick. A heartwarming dedication to his young son, it is ridiculous yet completely uplifting. As it explodes into a guitar-drenched Oasis B-side, Williams recites a litany of family woes that could affect his offspring. It'll make grandma blush, but at the heart of it all, he's confident that his son will "break the chain" of sin. Despite that title and explicit lyrics, Williams allows some sincerity to shine through the sophomoric, remaining hilarious and full of heart. Eleven albums in and he's still one of the most likable acts around, truly one of a kind.

Контейнер: FLAC (*.flac)
Тип рипа: tracks
Разрядность: 24/44,1
Количество каналов: 2.0
Код: Выделить всё
foobar2000 1.3.9 / Dynamic Range Meter 1.1.1
log date: 2017-02-14 00:49:59
--------------------------------------------------------------------------------
Analyzed: Robbie Williams / The Heavy Entertainment Show (Deluxe)
--------------------------------------------------------------------------------
DR         Peak         RMS     Duration Track
--------------------------------------------------------------------------------
DR5       -1.20 dB    -7.63 dB      3:23 01-The Heavy Entertainment Show
DR5       -1.20 dB    -7.79 dB      3:03 02-Party Like a Russian
DR4       -1.40 dB    -7.55 dB      3:59 03-Mixed Signals
DR5       -1.22 dB    -9.34 dB      3:28 04-Love My Life
DR5       -1.20 dB    -8.27 dB      4:18 05-Motherfucker
DR4       -1.20 dB    -6.29 dB      3:13 06-Bruce Lee
DR7       -1.20 dB    -9.87 dB      3:16 07-Sensitive
DR5       -1.20 dB    -8.52 dB      4:14 08-David's Song
DR6       -1.22 dB    -9.38 dB      2:56 09-Pretty Woman
DR5       -1.20 dB    -6.84 dB      4:25 10-Hotel Crazy (with Rufus Wainwright)
DR4       -1.20 dB    -6.70 dB      3:48 11-Sensational
DR5       -1.20 dB    -7.94 dB      4:21 12-When You Know
DR5       -1.20 dB    -7.94 dB      4:51 13-Time On Earth
DR5       -1.20 dB    -7.32 dB      4:19 14-I Don't Want to Hurt You (with John Grant)
DR4       -1.20 dB    -6.36 dB      3:44 15-Best Intentions
DR4       -1.20 dB    -7.39 dB      3:54 16-Marry Me
--------------------------------------------------------------------------------
Number of tracks:  16
Official DR value: DR5
Samplerate:        44100 Hz
Channels:          2
Bits per sample:   24
Bitrate:           1715 kbps
Codec:             FLAC
================================================================================
Источник: qobuz.com[/spoiler]
Не забывайте говорить Спасибо. Не уходите с раздачи!   
Торрент: Зарегистрирован [13 фев 2017, 22:15]
Статус:
Проверен
 
.torrent скачан: 0 раз
Хэш: 2027f16e11313607032a351e085f0f5ed736d41a
Размер: 737.99 МБ (773 834 507 байт)
   Стать Автором раздачи
   
Цитата

Вернуться в Поп-музыка (Hi-Res stereo)

Кто сейчас на конференции

Сейчас эту тему просматривают: нет зарегистрированных пользователей и гости: 1