[TR24][OF] Pentatonix - PTX Presents: Top Pop Vol. I - 2018 (Pop, Vocal, Acapella)

 Статистика раздачи 
Размер: 412.71 МБ   |  Зарегистрирован: 18 апр 2018, 13:35   |   .torrent скачан: 0 раз
Сидеров: 0  [ 0 байт/сек ]     Личеров: 0  [ 0 байт/сек ]  
  
Аватара пользователя
Главный редактор
Главный редактор
 
Раздал: 90.01 ТБ
Скачал: 3.78 ТБ
Ратио: 24.248
Сообщения: 274788
Стаж: 9 лет 1 месяц 19 дней
Откуда: Санкт-Петербург

Pentatonix - PTX Presents: Top Pop Vol. I
Формат записи/Источник записи: [TR24][OF]
Наличие водяных знаков: Нет
Год издания/переиздания диска: 2018
Жанр: Pop, Vocal, Acapella
Издатель (лейбл): RCA Records
Продолжительность: 35:22
Наличие сканов в содержимом раздачи: Только обложка альбома
Треклист:
01. Attention (2:52)
02. Finesse (3:12)
03. New Rules x Are You That Somebody? (2:58)
04. Havana (2:36)
05. Perfect (4:22)
06. Stay (3:23)
07. Feel It Still (3:01)
08. Despacito x Shape Of You (3:19)
09. Issues (2:42)
10. Praying (3:35)
11. Sorry Not Sorry (3:24)
 
Three-time Grammy Award-winning and multi-platinum-selling artist Pentatonix will release PTX Presents: Top Pop, Vol. I via RCA Records. The inaugural release for the group's PTX Presents series will feature 11 PTX-curated modern pop performances, including an arrangement of Camila Cabello's "Havana."
Three-time Grammy® Award-winning and multi-platinum-selling artist Pentatonix has sold nearly 10 million albums in worldwide consumption and performed for hundreds of thousands of fans at their sold out shows across the globe. Their YouTube channel boasts more than 14.6 million subscribers, yielding over 3.1 billion video views. Their 2015 self-titled album is certified gold after debuting #1 on Billboard’s 200.
Additionally, nine of their albums reached the top 10 on Billboard’s 200 chart (two albums reaching #1) and received multiple RIAA certifications for multi-platinum, platinum and gold selling albums and singles. Most recently, “Mary, Did You Know?” and “Hallelujah” were certified platinum, while the Pentatonix original, “Can’t Sleep Love,” was certified gold. The group has had two holiday specials on NBC, released their tour documentary – On My Way Home – in 2015 and appeared in the feature film, Pitch Perfect 2.

Контейнер: FLAC (*.flac)
Тип рипа: tracks
Разрядность: 24/44,1
Формат: PCM
Количество каналов: 2.0
Код: Выделить всё
foobar2000 1.3.9 / Dynamic Range Meter 1.1.1
log date: 2018-04-18 16:24:09
--------------------------------------------------------------------------------
Analyzed: Pentatonix / PTX Presents: Top Pop Vol. I
--------------------------------------------------------------------------------
DR         Peak         RMS     Duration Track
--------------------------------------------------------------------------------
DR5       -0.01 dB    -6.57 dB      2:52 01-Attention
DR7       -0.01 dB    -8.68 dB      3:12 02-Finesse
DR6       -0.01 dB    -7.11 dB      2:58 03-New Rules x Are You That Somebody?
DR6       -0.01 dB    -7.54 dB      2:36 04-Havana
DR5       -0.01 dB    -7.52 dB      4:22 05-Perfect
DR6       -0.01 dB    -7.77 dB      3:23 06-Stay
DR5       -0.01 dB    -6.20 dB      3:01 07-Feel It Still
DR5       -0.01 dB    -6.48 dB      3:19 08-Despacito x Shape Of You
DR6       -0.01 dB    -8.27 dB      2:42 09-Issues
DR5       -0.01 dB    -7.76 dB      3:35 10-Praying
DR5       -0.01 dB    -6.35 dB      3:24 11-Sorry Not Sorry
--------------------------------------------------------------------------------
Number of tracks:  11
Official DR value: DR6
Samplerate:        44100 Hz
Channels:          2
Bits per sample:   24
Bitrate:           1628 kbps
Codec:             FLAC
================================================================================
Источник: qobuz.com[/spoiler]
Не забывайте говорить Спасибо. Не уходите с раздачи!   
Торрент: Зарегистрирован [18 апр 2018, 13:35]
Статус:
Проверен
 
.torrent скачан: 0 раз
Хэш: 8c2e7b9a467500bfd4f0220f77f63d01ab844462
Размер: 412.71 МБ (432 762 593 байт)
   Стать Автором раздачи
   
Цитата
  • Похожие торренты
    Ответы
    Просмотры
    Последнее сообщение

Вернуться в Поп-музыка (Hi-Res stereo)

Кто сейчас на конференции

Сейчас эту тему просматривают: нет зарегистрированных пользователей и гости: 1