[TR24][OF] Pentatonix - PTX Vol. IV - Classics (EP) - 2017 (Pop, Acapella)

 Статистика раздачи 
Размер: 282.68 МБ   |  Зарегистрирован: 16 авг 2017, 18:28   |   .torrent скачан: 0 раз
Сидеров: 0  [ 0 байт/сек ]     Личеров: 0  [ 0 байт/сек ]  
  
Аватара пользователя
Главный редактор
Главный редактор
 
Раздал: 90.01 ТБ
Скачал: 3.78 ТБ
Ратио: 24.248
Сообщения: 274043
Стаж: 9 лет 1 месяц 16 дней
Откуда: Санкт-Петербург

Pentatonix - PTX Vol. IV - Classics
Формат записи/Источник записи: [TR24][OF]
Наличие водяных знаков: Нет
Издание: EP
Год издания/переиздания диска: 2017
Жанр: Pop, Acapella
Издатель (лейбл): RCA Records
Продолжительность: 25:08
Наличие сканов в содержимом раздачи: Только обложка альбома
Треклист:
01. Bohemian Rhapsody (5:56)
02. Imagine (4:21)
03. Boogie Woogie Bugle Boy (2:18)
04. Over The Rainbow (3:54)
05. Take On Me (3:29)
06. Can't Help Falling In Love (2:58)
07. Jolene (feat. Dolly Parton) (2:12)
 
A five-person a cappella group originally from Arlington, Texas, Pentatonix first found a national spotlight by winning the third season of NBC's The Sing-Off in 2011. With a decidedly contemporary spin on the format and unique strengths at each position in their lineup, they followed the appearance with a string of Top Ten albums, multiple Grammy Awards, and international chart success.
Formed by high-school friends Kirstie Maldonado, Mitch Grassi, and Scott Hoying, the group got its start after its version of Beyoncé and Lady Gaga's "Telephone," recorded for a local Glee-related contest, started garnering attention on YouTube. The band then added members Avi Kaplan and Kevin Olusola, renamed itself Pentatonix, and auditioned for The Sing-Off. Standing out for their unexpected stylistic range, which found them covering songs in such styles as electronica, reggae, R&B, dubstep, and more, Pentatonix ultimately won The Sing-Off performing Survivor's "Eye of the Tiger."
They relocated to Los Angeles and released a debut EP, PTX, Vol. 1, in 2012, featuring versions of "Starships" by Nicki Minaj and "Somebody That I Used to Know" by Gotye. The inevitable PTXmas and their debut on The Tonight Show with Jay Leno followed later that year. Another EP the next year, PTX, Vol. 2, featured versions of hits by Macklemore & Ryan Lewis and Calvin Harris, as well as "Daft Punk," which won a Grammy Award in the category of Best Arrangement, Instrumental or A Cappella. PTX, Vol. 3, released in September 2014, included three originals and four covers, including "Problem" by Ariana Grande and a version of Disclosure's "Latch" called "La La Latch." The next month brought their second holiday release, That's Christmas to Me. Subsequently awarded a platinum certification from the RIAA, its "Dance of the Sugar Plum Fairy" won the group a second Grammy.
In 2015, Pentatonix delivered their fourth studio album, an eponymously titled release of all-original material that topped the Billboard 200. The album's lead single, "Can't Sleep Love," landed in the Hot 100. In the meantime, they also had a cameo in the hit musical film Pitch Perfect 2. The following summer, they reworked Ray Parker, Jr.'s Ghostbusters theme for the 2016 reboot of the film franchise, and in September 2016 the group released a version of "Jolene" featuring Dolly Parton. The latter ultimately won them a third Grammy, this time for Best Country Duo/Group Performance. That October, they issued A Pentatonix Christmas, which became their second number one, platinum-selling recording, given an extra boost with the NBC-televised A Pentatonix Christmas Special in December. It featured a cover of Leonard Cohen's "Hallelujah" that hit the Top 25 in the U.S. as well as Canada and parts of Europe, where it topped the singles chart in Austria. Pentatonix returned with more music early in 2017 via PTX, Vol. 4 - Classics, which featured "Jolene" as well as a cover of John Lennon's "Imagine." The EP made the Top Ten in Canada, Australia, and the U.S., reaching number four on the Billboard 200.

Контейнер: FLAC (*.flac)
Тип рипа: tracks
Разрядность: 24/44,1
Количество каналов: 2.0
Код: Выделить всё
foobar2000 1.3.9 / Dynamic Range Meter 1.1.1
log date: 2017-08-16 21:08:42
--------------------------------------------------------------------------------
Analyzed: Pentatonix / PTX Vol. IV - Classics
--------------------------------------------------------------------------------
DR         Peak         RMS     Duration Track
--------------------------------------------------------------------------------
DR7       -0.07 dB    -9.66 dB      5:56 01-Bohemian Rhapsody
DR7       -1.81 dB   -11.04 dB      4:21 02-Imagine
DR7       -0.01 dB    -9.81 dB      2:18 03-Boogie Woogie Bugle Boy
DR10      -1.29 dB   -12.96 dB      3:54 04-Over The Rainbow
DR7       -0.01 dB    -8.50 dB      3:29 05-Take On Me
DR9       -0.01 dB   -11.61 dB      2:58 06-Can't Help Falling In Love
DR6       -0.01 dB    -8.48 dB      2:12 07-Jolene (feat. Dolly Parton)
--------------------------------------------------------------------------------
Number of tracks:  7
Official DR value: DR8
Samplerate:        44100 Hz
Channels:          2
Bits per sample:   24
Bitrate:           1549 kbps
Codec:             FLAC
================================================================================
Источник: 7digital.com[/spoiler]
Не забывайте говорить Спасибо. Не уходите с раздачи!   
Торрент: Зарегистрирован [16 авг 2017, 18:28]
Статус:
Проверен
 
.torrent скачан: 0 раз
Хэш: 402410c9b47d4477c8253adb6acd92e51ccb0ee2
Размер: 282.68 МБ (296 408 053 байт)
   Стать Автором раздачи
   
Цитата
  • Похожие торренты
    Ответы
    Просмотры
    Последнее сообщение

Вернуться в Поп-музыка (Hi-Res stereo)

Кто сейчас на конференции

Сейчас эту тему просматривают: нет зарегистрированных пользователей и гости: 1