[TR24][OF] Lady Gaga - Born This Way (Bonus Track Edition) - 2011/2017 (Pop)

 Статистика раздачи 
Размер: 1.2 ГБ   |  Зарегистрирован: 05 фев 2017, 18:05   |   .torrent скачан: 0 раз
Сидеров: 0  [ 0 байт/сек ]     Личеров: 0  [ 0 байт/сек ]  
  
Аватара пользователя
Главный редактор
Главный редактор
 
Раздал: 90.01 ТБ
Скачал: 3.78 ТБ
Ратио: 24.248
Сообщения: 274043
Стаж: 9 лет 1 месяц 16 дней
Откуда: Санкт-Петербург

Lady Gaga / Born This Way (Bonus Track Edition)
Формат записи/Источник записи: [TR24][OF]
Наличие водяных знаков: Нет
Год издания/переиздания диска: 2011/2017
Жанр: Pop
Издатель(лейбл): Streamline/Interscope Records
Продолжительность: 1:39:54
Наличие сканов в содержимом раздачи: Только обложка альбома
Треклист:
1. Marry The Night
2. Born This Way
3. Government Hooker
4. Judas
5. Americano
6. Hair
7. Schei?e
8. Bloody Mary
9. Black Jesus + Amen Fashion
10. Bad Kids
11. Fashion Of His Love
12. Highway Unicorn (Road To Love)
13. Heavy Metal Lover
14. Electric Chapel
15. The Queen
16. You And I
17. The Edge Of Glory
18. Born This Way
19. Judas
20. Marry The Night
21. Schei?e
22. Fashion Of His Love
Контейнер: FLAC (*.flac)
Тип рипа: tracks
Разрядность: 24/44,1
Формат: PCM
Количество каналов: 2.0
Код: Выделить всё
foobar2000 1.3.13 / Замер динамического диапазона (DR) 1.1.1
Дата отчёта:  2017-02-05 19:28:45
--------------------------------------------------------------------------------
Анализ:   Lady Gaga / Born This Way
--------------------------------------------------------------------------------
DR         Пики         RMS           Продолжительность трека
--------------------------------------------------------------------------------
DR6        0.00 дБ    -8.81 дБ      4:25 01-Marry The Night
DR6       -0.63 дБ    -8.65 дБ      4:20 02-Born This Way
DR6       -0.50 дБ    -8.23 дБ      4:14 03-Government Hooker
DR6       -0.23 дБ    -7.91 дБ      4:09 04-Judas
DR6       -0.12 дБ    -8.29 дБ      4:06 05-Americano
DR6       -0.06 дБ    -7.97 дБ      5:08 06-Hair
DR7       -0.09 дБ    -8.09 дБ      3:45 07-Scheiße
DR6       -0.66 дБ    -8.85 дБ      4:05 08-Bloody Mary
DR6        0.00 дБ    -8.05 дБ      3:36 09-Black Jesus + Amen Fashion
DR6        0.00 дБ    -8.24 дБ      3:51 10-Bad Kids
DR6       -0.63 дБ    -8.80 дБ      3:39 11-Fashion Of His Love
DR6       -0.73 дБ    -8.75 дБ      4:16 12-Highway Unicorn (Road To Love)
DR7       -0.54 дБ   -10.20 дБ      4:13 13-Heavy Metal Lover
DR6        0.00 дБ    -8.28 дБ      4:12 14-Electric Chapel
DR6       -0.30 дБ    -9.27 дБ      5:17 15-The Queen
DR6       -0.54 дБ    -8.64 дБ      5:07 16-Yoü And I
DR6       -0.43 дБ    -9.45 дБ      5:22 17-The Edge Of Glory
DR8       -0.21 дБ   -11.23 дБ      4:21 18-Born This Way
DR6       -0.25 дБ    -9.36 дБ      4:07 19-Judas
DR4       -3.98 дБ   -10.06 дБ      4:21 20-Marry The Night
DR6       -0.18 дБ    -8.32 дБ      9:35 21-Scheiße
DR6       -0.58 дБ    -9.33 дБ      3:45 22-Fashion Of His Love
--------------------------------------------------------------------------------
Количество треков: 22
Реальные значения DR: DR6
Частота:   44100 Гц
Каналов:   2
Разрядность:   24
Битрейт:   1714 кбит/с
Кодек:   FLAC
================================================================================


Источник (релизер):
Не забывайте говорить Спасибо. Не уходите с раздачи!   
Торрент: Зарегистрирован [05 фев 2017, 18:05]
Статус:
Проверен
 
.torrent скачан: 0 раз
Хэш: d625921f3a0b0c4af58016cb7712764f873c93d3
Размер: 1.2 ГБ (1 284 548 483 байт)
   Стать Автором раздачи
   
Цитата
  • Похожие торренты
    Ответы
    Просмотры
    Последнее сообщение

Вернуться в Поп-музыка (Hi-Res stereo)

Кто сейчас на конференции

Сейчас эту тему просматривают: нет зарегистрированных пользователей и гости: 1