[TR24][OF] Randy Newman - Harps And Angels - 2008/2017 (Pop)

 Статистика раздачи 
Размер: 684.16 МБ   |  Зарегистрирован: 22 дек 2017, 09:37   |   .torrent скачан: 0 раз
Сидеров: 0  [ 0 байт/сек ]     Личеров: 0  [ 0 байт/сек ]  
  
Аватара пользователя
Главный редактор
Главный редактор
 
Раздал: 90.01 ТБ
Скачал: 3.78 ТБ
Ратио: 24.248
Сообщения: 274187
Стаж: 9 лет 1 месяц 18 дней
Откуда: Санкт-Петербург
СообщениеДобавлено: 22 дек 2017, 09:37


Randy Newman - Harps And Angels
Формат записи/Источник записи: [TR24][OF]
Наличие водяных знаков: Нет
Год издания/переиздания диска: 2008/2017
Жанр: Pop
Издатель (лейбл): Nonesuch Records
Продолжительность: 34:49
Наличие сканов в содержимом раздачи: Буклет PDF
Треклист:
01. Harps And Angels.flac
02. Losing You.flac
03. Laugh And Be Happy.flac
04. A Few Words In Defense Of Our Country.flac
05. A Piece Of The Pie.flac
06. Easy Street.flac
07. Korean Parents.flac
08. Only A Girl.flac
09. Potholes.flac
10. Feels Like Home.flac
Personnel:
Randy Newman, piano
Steve Donnelly, guitar
Greg Cohen, bass
Pete Thomas, drums
Greg Leisz, pedal steel guitar, acoustic slide guitar
Mitchell Froom, keyboard, organ
Alan Estes, percussion
Gregory Goodall, percussion
Jo Ann Turovsky, harp
Allison Allport, harp
Frank Marocco, accordion
 
Randy Newman always came across as an old crank even when he was an angry young man, so it shouldn't come as a surprise that he's flourishing as an old curmudgeon. Flourishing might seem to be an odd word to apply to an artist whose output slowed to a trickle after the release of 1988's Land of Dreams, but 1999's Bad Love found him reconnecting to his core strengths and its 2008 sequel, Harps and Angels, is its equal -- a lean, uncluttered, viciously funny collection of rolling New Orleans shuffles, movie musical moments, and the occasional tender love song. In many ways, Harps and Angels is a continuation of Bad Love, as it has a similar stripped-down production and many of the same lyrical themes, as Newman still is singing about America and aging, just as he was almost a decade earlier. This isn't stasis, this is consistency, as Newman has always relied on his misanthropic wit just as he's always relied on his love for Fats Domino and old Hollywood scores, and this familiar musical bed helps the new wrinkles stand out, whether it's the symphonic stabs that punctuate the near-death experience on the title track or using Jackson Browne as a punch line on "A Piece of the Pie." While its unadorned sound could be seen as a throwback to the early '70s -- especially with rollicking numbers like "Only a Girl" and "Potholes" recalling how 12 Songs could skip lightly -- Harps and Angels is quite explicitly an album of its time, as Newman confronts the age of George W. Bush directly with the merciless "A Few Words in Defense of Our Country" and "A Piece of the Pie," where he points out if you're "living in the richest country in the world/Wouldn't you think you'd have a better life?" In this context, Newman's heavy reliance on loping New Orleans rhythms almost seems like a defiant expression of solidarity with the Crescent City in the wake of Hurricane Katrina, but that's probably reading a little bit too much into it, as these bluesy shuffles are Newman's greatest comfort zone, the place where his slurred singing sounds just right and where his sardonic jokes richly resonate. It's his signature sound and Harps and Angels captures it sublimely, as the production -- a co-credit to Newman's longtime associate Lenny Waronker and his latter-day producer Mitchell Froom -- has no fancy accoutrements and he's written another set of quietly wonderful songs, ranging from the brutal satire of "Korean Parents" to the gentle, lovely "Feels Like Home." These days he may take his time writing songs, but when he delivers two albums as excellent as Bad Love and Harps and Angels back to back, it's hard to call it anything besides flourishing.

Контейнер: FLAC (*.flac)
Тип рипа: tracks
Разрядность: 24/88,2
Формат: PCM
Количество каналов: 2.0
Код: Выделить всё
foobar2000 1.3.9 / Dynamic Range Meter 1.1.1
log date: 2017-12-22 12:15:06
--------------------------------------------------------------------------------
Analyzed: Randy Newman / Harps And Angels
--------------------------------------------------------------------------------
DR         Peak         RMS     Duration Track
--------------------------------------------------------------------------------
DR11      -0.09 dB   -13.13 dB      5:07 01-Harps And Angels
DR13      -0.09 dB   -15.12 dB      2:42 02-Losing You
DR9       -0.09 dB   -11.62 dB      2:20 03-Laugh And Be Happy
DR9       -0.09 dB   -11.66 dB      4:14 04-A Few Words In Defense Of Our Country
DR8       -0.10 dB   -11.07 dB      2:43 05-A Piece Of The Pie
DR11      -0.09 dB   -13.45 dB      3:14 06-Easy Street
DR11      -0.09 dB   -13.57 dB      3:26 07-Korean Parents
DR9       -0.59 dB   -12.24 dB      2:45 08-Only A Girl
DR10      -0.09 dB   -12.33 dB      3:42 09-Potholes
DR13      -0.09 dB   -15.64 dB      4:35 10-Feels Like Home
--------------------------------------------------------------------------------
Number of tracks:  10
Official DR value: DR10
Samplerate:        88200 Hz
Channels:          2
Bits per sample:   24
Bitrate:           2637 kbps
Codec:             FLAC
================================================================================
Источник: highresaudio.com[/spoiler]
Не забывайте говорить Спасибо. Не уходите с раздачи!   
Торрент: Зарегистрирован [22 дек 2017, 09:37]
Статус:
Проверен
 
.torrent скачан: 0 раз
Хэш: 9e489923dab26f58fb1947da009b017bfde5d27f
Размер: 684.16 МБ (717 389 638 байт)
   Стать Автором раздачи
   
Цитата

Вернуться в Поп-музыка (Hi-Res stereo)

Кто сейчас на конференции

Сейчас эту тему просматривают: нет зарегистрированных пользователей и гости: 1