[SACD-R][OF] Various Artists - Women’s Stories - 2015 (Pop, Soft Rock)

 Статистика раздачи 
Размер: 1.11 ГБ   |  Зарегистрирован: 21 июн 2015, 06:33   |   .torrent скачан: 0 раз
Сидеров: 0  [ 0 байт/сек ]     Личеров: 0  [ 0 байт/сек ]  
  
Аватара пользователя
Главный редактор
Главный редактор
 
Раздал: 90.01 ТБ
Скачал: 3.78 ТБ
Ратио: 24.248
Сообщения: 274043
Стаж: 9 лет 1 месяц 16 дней
Откуда: Санкт-Петербург

Various Artists / Women’s Stories
Формат записи/Источник записи: [SACD-R][OF]
Наличие водяных знаков: Нет
Год издания/переиздания диска: 2015
Жанр: Pop, Soft Rock
Издатель(лейбл): Sony Music Entertainment
Продолжительность: 01:09:11
Наличие сканов в содержимом раздачи: Да
Треклист:
01. Sade – Smooth Operator 04:20
02. Annie Lennox – Why 04:57
03. Beverly Craven – Promise Me 03:39
04. Celine Dion – My Heart Will Go On 05:13
05. Whitney Houston – Where Do Broken Hearts Go 04:40
06. Toni Braxton – Another Sad Love Song 05:05
07. Diana King – I Say A Little Prayer 03:39
08. Dionne Warwick – I’ll Never Love This Way Again 03:29
09. Taylor Dayne – Love Will Lead You Back 04:42
10. Martika – Toy Soldiers 04:52
11. Cyndi Lauper – All Through The Night 04:30
12. Mary McGregor – Torn Between Two Lovers 03:53
13. Melissa Manchester – Through The Eyes of Love 04:16
14. The Pointed Sisters – Slow Hand 03:55
15. Dee C. Lee – See The Day 04:24
16. Basia – Time and Tide 04:04
Контейнер: ISO (*.iso)
Тип рипа: image
Разрядность: 64 (2,8 MHz/1 Bit)
Формат: DST64
Количество каналов: 2.0
Источник (релизер): pssacd
Японский лимитированный выпуск DSD Stereo Hybrid Super Audio CD. Этот гибридный SACD представляет разнообразную музыку таких звезд, как Whitney Houston, Sade, Celine Dion, Toni Braxton, Melissa Manchester и другие.
foobar2000 1.3.8 / Dynamic Range Meter 1.1.1
log date: 2015-06-21 11:42:37
--------------------------------------------------------------------------------
Analyzed: Annie Lennox / Women's Stories (1)
Basia / Women's Stories (2)
Beverly Craven / Women's Stories (3)
Celine Dion / Women's Stories (4)
Cyndi Lauper / Women's Stories (5)
Dee C. Lee / Women's Stories (6)
Diana King / Women's Stories (7)
Dionne Warwick / Women's Stories (8)
Martika / Women's Stories (9)
Mary McGregor / Women's Stories (10)
Melissa Manchester / Women's Stories (11)
Sade / Women's Stories (12)
Taylor Dayne / Women's Stories (13)
The Pointed Sisters / Women's Stories (14)
Toni Braxton / Women's Stories (15)
Whitney Houston / Women's Stories (16)
--------------------------------------------------------------------------------
DR Peak RMS Duration Track
--------------------------------------------------------------------------------
DR11 -0.16 dB -13.57 dB 4:57 02-Why
DR11 -0.30 dB -13.27 dB 4:04 16-Time and Tide
DR10 -0.15 dB -13.53 dB 3:39 03-Promise Me
DR10 -0.15 dB -13.09 dB 5:13 04-My Heart Will Go On
DR11 -0.14 dB -13.45 dB 4:30 11-All Through The Night
DR11 -0.17 dB -13.09 dB 4:24 15-See The Day
DR10 -0.16 dB -12.45 dB 3:39 07-I Say A Little Prayer
DR12 -0.15 dB -14.48 dB 3:29 08-I'll Never Love This Way Again
DR11 -0.15 dB -13.23 dB 4:52 10-Toy Soldiers
DR11 -0.15 dB -14.47 dB 3:53 12-Torn Between Two Lovers
DR10 -0.15 dB -14.42 dB 4:16 13-Through The Eyes of Love
DR9 -0.18 dB -11.88 dB 4:22 01-Smooth Operator
DR11 -0.16 dB -14.11 dB 4:42 09-Love Will Lead You Back
DR12 -0.15 dB -14.49 dB 3:55 14-Slow Hand
DR13 -0.15 dB -14.32 dB 5:05 06-Another Sad Love Song
DR10 -0.15 dB -13.01 dB 4:40 05-Where Do Broken Hearts Go
--------------------------------------------------------------------------------
Number of tracks: 16
Official DR value: DR11
Samplerate: 88200 Hz
Channels: 2
Bits per sample: 24
Bitrate: 2724 kbps
Codec: FLAC
================================================================================
http://www.sa-cd.net/showtitle/10600
Не забывайте говорить Спасибо. Не уходите с раздачи!   
Торрент: Зарегистрирован [21 июн 2015, 06:33]
Статус:
Проверен
 
.torrent скачан: 0 раз
Хэш: 6cbeda5b746abfbcf1fe3b42e02d37f443453883
Размер: 1.11 ГБ (1 189 707 315 байт)
   Стать Автором раздачи
   
Цитата
  • Похожие торренты
    Ответы
    Просмотры
    Последнее сообщение

Вернуться в Поп-музыка (Hi-Res stereo)

Кто сейчас на конференции

Сейчас эту тему просматривают: нет зарегистрированных пользователей и гости: 1