[SACD-R][OF] Caravelli - Caravelli At San Remo & J'aime - 1967,1966/2019 (Easy Listening)

 Статистика раздачи 
Размер: 1.04 ГБ   |  Зарегистрирован: 23 сен 2019, 13:12   |   .torrent скачан: 0 раз
Сидеров: 24  [ 0 байт/сек ]     Личеров: 8  [ 0 байт/сек ]  
  
Аватара пользователя
Главный редактор
Главный редактор
 
Раздал: 90.01 ТБ
Скачал: 3.78 ТБ
Ратио: 24.248
Сообщения: 273621
Стаж: 9 лет 1 месяц 12 дней
Откуда: Санкт-Петербург

Caravelli / Caravelli At San Remo & J'aime
Формат записи/Источник записи: [SACD-R][OF]
Наличие водяных знаков: Нет
Год издания/переиздания диска: 1967,1966/2019
Жанр: Easy Listening
Издатель (лейбл): Vocalion
Продолжительность: 01:02:38
Наличие сканов в содержимом раздачи: Да (сканы)
Треклист:
Caravelli At San Remo
01. Io Ti Daro Di Piu (Can I Trust You)
02. Le Colline Sono In Fiore (The River)
03. Io Che Non Vivo Senza Te (You Don't Have To Say You Love Me)
04. Una Casa In Cima Al Mondo (Don't Cry)
05. Volare
06. Al Di La
07. Quando Quando Quando
08. Piove (Ciao Ciao Bambina)
09. Non Pensare A Me (Time Alone Will Tell)
10. Io Tu E Le Rose
11. Dio Come Ti Amo (Oh, How Much I Love You)
J'aime
12. La Boheme
13. What's New Pussycat
14. J'aime
15. Pourvu Que Ca Dure (Long Live Love)
16. Le Ciel, Le Soleil, Et La Mer
17. Scandale Dans La Famille (Shame And Scandal In The Family)
18. Capri C'est Fini
19. Mon Coeur D'attache
20. Yesterday
21. Quand Un Bateau Passe (Trains Boats And Planes)
22. Mes Mains Sur Tes Hanches
Контейнер: ISO (*.iso)
Тип рипа: image
Разрядность: 64(2,8 MHz/1 Bit)
Формат: DST64
Количество каналов: 2.0
Код: Выделить всё
foobar2000 1.4.6 / Замер динамического диапазона (DR) 1.1.1
Дата отчёта:  2019-09-23 18:53:05
--------------------------------------------------------------------------------
Анализ:   Caravelli / San Remo & J aime
--------------------------------------------------------------------------------
DR         Пики         RMS           Продолжительность трека
--------------------------------------------------------------------------------
DR10      -7.93 дБ   -21.85 дБ      2:50 01-Io Ti Daro Di Piu  Can I Trust You
DR9       -9.31 дБ   -22.35 дБ      2:56 02-Le Colline Sono in Fiore The River
DR10      -8.93 дБ   -22.79 дБ      2:42 03-Io Che Non Vivo Senza Te  You Dont Have to Say You Love Me
DR10      -9.00 дБ   -23.41 дБ      3:04 04-Una Casa in Cima al Mondo  Dont Cry
DR10      -8.88 дБ   -22.58 дБ      3:10 05-Volare
DR11      -7.57 дБ   -22.03 дБ      3:35 06-Al di La
DR10      -8.68 дБ   -21.26 дБ      2:23 07-Quando Quando Quando
DR9       -8.53 дБ   -22.69 дБ      2:25 08-Piove Ciao Ciao Bambina
DR10      -9.93 дБ   -23.25 дБ      3:07 09-Non Pensare a Me  Time Alone Will Tell
DR9      -10.80 дБ   -23.69 дБ      2:50 10-Io Tu e Le Rose
DR12      -7.71 дБ   -25.61 дБ      3:33 11-Dio Come Ti Amo Oh  How Much I Love You
DR11      -6.46 дБ   -23.82 дБ      3:38 12-La Boheme
DR12      -7.93 дБ   -23.89 дБ      2:22 13-Whats New Pussycat
DR10      -8.33 дБ   -22.65 дБ      2:28 14-J aime
DR13      -6.52 дБ   -23.07 дБ      2:32 15-Pourvu Que Ca Dure  Long Live Love
DR10      -8.49 дБ   -22.83 дБ      2:21 16-Le Ciel  Le Soleil et La Mer
DR12      -6.60 дБ   -22.74 дБ      2:37 17-Scandale Dans La Famille  Shame and Scandal in the Family
DR12      -6.74 дБ   -21.94 дБ      3:42 18-Capri C est Fini
DR11      -9.53 дБ   -23.59 дБ      2:37 19-Mon Coeur D attache
DR10      -8.61 дБ   -23.03 дБ      2:14 20-Yesterday
DR11      -6.29 дБ   -23.87 дБ      3:22 21-Quand Un Bateau Passe Trains and Boats and Planes
DR12      -6.81 дБ   -22.60 дБ      2:11 22-Mes Mains Sur Tes Hanches
--------------------------------------------------------------------------------
Количество треков: 22
Реальные значения DR: DR11
Частота:   2822400 Гц / Частота PCM: 88200 Гц
Каналов:   2
Разрядность:   1
Битрейт:   5645 кбит/с
Кодек:   DST64
================================================================================
Источник (релизер): https://www.discogs.com/ru/Caravelli-And-His-Enchanted-Strings-Caravelli-At-San-R...release/13231056
За предоставленный диск спасибо: Shturman3
Не забывайте говорить Спасибо. Не уходите с раздачи!   
Торрент: Зарегистрирован [23 сен 2019, 13:12]
Статус:
Проверен
 
.torrent скачан: 0 раз
Хэш: 1fbd0897d0387b69e1759adca66ce2543c7c2016
Размер: 1.04 ГБ (1 114 739 049 байт)
   Стать Автором раздачи
   
Цитата
  • Похожие торренты
    Ответы
    Просмотры
    Последнее сообщение

Вернуться в Поп-музыка (Hi-Res stereo)

Кто сейчас на конференции

Сейчас эту тему просматривают: нет зарегистрированных пользователей и гости: 1