[TR24][OF] Charlotte Gainsbourg - Rest - 2017 (French Pop)

 Статистика раздачи 
Размер: 565.53 МБ   |  Зарегистрирован: 17 ноя 2017, 01:04   |   .torrent скачан: 0 раз
Сидеров: 0  [ 0 байт/сек ]     Личеров: 0  [ 0 байт/сек ]  
  
Аватара пользователя
Главный редактор
Главный редактор
Я на сайте
 
Раздал: 90.01 ТБ
Скачал: 3.78 ТБ
Ратио: 24.248
Сообщения: 273587
Стаж: 9 лет 1 месяц 11 дней
Откуда: Санкт-Петербург
СообщениеДобавлено: 17 ноя 2017, 01:04


Charlotte Gainsbourg - Rest
Формат записи/Источник записи: [TR24][OF]
Наличие водяных знаков: Нет
Год издания/переиздания диска: 2017
Жанр: French Pop
Издатель (лейбл): Because Music
Продолжительность: 48:30
Наличие сканов в содержимом раздачи: Только обложка альбома
Треклист:
01. Ring-A-Ring O' Roses (4:29)
02. Lying With You (3:19)
03. Kate (3:41)
04. Deadly Valentine (6:05)
05. I'm A Lie (3:29)
06. Rest (3:39)
07. Sylvia Says (4:28)
08. Songbird In A Cage (4:33)
09. Dans vos airs (3:33)
10. Les crocodiles (3:17)
11. Les oxalis (7:57)
 
Etre une artiste installée, casée, choyée voire sereine n’empêche pas certaines œuvres de surgir à des moments bien plus intenses que d’autres. En cela, Rest n’est pas un simple énième album pour Charlotte Gainsbourg. Rest pour le repos ; des morts et des vivants. Pour la sieste aussi. Et le reste également… Quatre ans après la mort de sa sœur Kate, elle abat sur la table, face à elle, de nombreuses cartes majeures de ses 46 années passées sur terre. Le poids d’un père lourdement charismatique (Lying With You) mais aussi le regard des autres (I’m A Lie) comme ce récent décès tragique (Kate) sont au cœur d’un disque d’une rare force émotionnelle. Evidemment, Charlotte Gainsbourg a la grande intelligence de manipuler toute cette nitroglycérine introspective avec soin. Et, à aucun moment, on est tenté d’appeler la police du pathos… Pour l’accompagner dans cette œuvre aux cambrures cathartiques, elle a convié Guy-Manuel de Homem-Christo des Daft Punk avec qui elle co-signé le single Rest mais surtout, pour tout le reste de ce cinquième album, Sébastien Akchoté alias SebastiAn, virtuose du clan électro Ed Banger, qui lui a taillé ici une parure instrumentale plus que parfaite. Un habit fait d’étoffes plus gainsbouriennes (le père) que jamais, qu’il recoud à sa façon, moderne mais pas trop… Un titre d’un certain Paul McCartney (Songbird In A Cage) et deux de Connan Mockasin (Dans vos airs et Les Crocodiles) viennent compléter une œuvre forte, protéiforme et très personnelle. La plus personnelle sans doute de son auteur. © MZ/Qobuz

Контейнер: FLAC (*.flac)
Тип рипа: tracks
Разрядность: 24/44,1
Формат: PCM
Количество каналов: 2.0
Код: Выделить всё
foobar2000 1.3.9 / Dynamic Range Meter 1.1.1
log date: 2017-11-17 03:45:24
--------------------------------------------------------------------------------
Analyzed: Charlotte Gainsbourg / Rest
--------------------------------------------------------------------------------
DR         Peak         RMS     Duration Track
--------------------------------------------------------------------------------
DR6        0.00 dB    -8.45 dB      4:29 01-Ring-A-Ring O' Roses
DR6        0.00 dB    -8.06 dB      3:19 02-Lying With You
DR7        0.00 dB    -8.49 dB      3:41 03-Kate
DR6        0.00 dB    -8.66 dB      6:05 04-Deadly Valentine
DR7        0.00 dB    -8.92 dB      3:29 05-I'm A Lie
DR7       -0.51 dB    -8.58 dB      3:39 06-Rest
DR6        0.00 dB    -7.87 dB      4:28 07-Sylvia Says
DR7        0.00 dB    -8.26 dB      4:33 08-Songbird In A Cage
DR7        0.00 dB    -9.31 dB      3:33 09-Dans vos airs
DR6        0.00 dB    -8.79 dB      3:17 10-Les crocodiles
DR6        0.00 dB    -9.21 dB      7:57 11-Les oxalis
--------------------------------------------------------------------------------
Number of tracks:  11
Official DR value: DR6
Samplerate:        44100 Hz
Channels:          2
Bits per sample:   24
Bitrate:           1600 kbps
Codec:             FLAC
================================================================================
Источник: qobuz.com[/spoiler]
Не забывайте говорить Спасибо. Не уходите с раздачи!   
Торрент: Зарегистрирован [17 ноя 2017, 01:04]
Статус:
Проверен
 
.torrent скачан: 0 раз
Хэш: 37818f1726edc71a2e4e693110e86e3f4f78b4a5
Размер: 565.53 МБ (592 996 869 байт)
   Стать Автором раздачи
   
Цитата
  • Похожие торренты
    Ответы
    Просмотры
    Последнее сообщение

Вернуться в Поп-музыка (Hi-Res stereo)

Кто сейчас на конференции

Сейчас эту тему просматривают: нет зарегистрированных пользователей и гости: 1