[TR24][OF] Serge Gainsbourg - Casino de Paris 1985 (Live) (Super Deluxe Edition) - 1985/2016 (French Pop, Chanson)

 Статистика раздачи 
Размер: 2.66 ГБ   |  Зарегистрирован: 05 окт 2017, 14:47   |   .torrent скачан: 0 раз
Сидеров: 0  [ 0 байт/сек ]     Личеров: 0  [ 0 байт/сек ]  
  
Аватара пользователя
Главный редактор
Главный редактор
Я на сайте
 
Раздал: 90.01 ТБ
Скачал: 3.78 ТБ
Ратио: 24.248
Сообщения: 274792
Стаж: 9 лет 1 месяц 19 дней
Откуда: Санкт-Петербург

Serge Gainsbourg - Casino de Paris 1985 (Live)
Формат записи/Источник записи: [TR24][OF]
Наличие водяных знаков: Нет
Издание: Super Deluxe Edition
Год издания/переиздания диска: 1985/2016
Жанр: French Pop, Chanson
Издатель (лейбл): Barclay
Продолжительность: 02:07:37
Наличие сканов в содержимом раздачи: Только обложка альбома
Треклист:
01. Love On The Beat (10:45)
02. Initials B.B. (3:04)
03. Harley Davidson (2:46)
04. Sorry Angel (4:32)
05. Aux armes et cætera (3:56)
06. Nazi Rock (3:34)
07. Des laids des laids (3:11)
08. Ballade de Johnny-Jane (2:57)
09. Bonnie And Clyde (5:00)
10. Vieille canaille (3:01)
11. I'm The Boy (7:13)
12. Docteur Jekyll et monsieur Hyde (2:43)
13. Lemon Incest (1:19)
14. Mickey Maousse (1:09)
15. La nostalgie camarade (4:37)
16. Kiss Me Hardy (4:40)
17. Dépression au-dessus du jardin (2:23)
18. My Lady Heroine (3:10)
19. Histoires (6:09)
20. Je suis venu te dire que je m'en vais (3:25)
21. L'eau à la bouche (3:06)
22. Lola rastaquouère (3:24)
23. Présentation musiciens (2:56)
24. Marilou sous la neige (3:01)
25. No Comment (4:37)
26. Hmm hmm hmm (2:38)
27. Harley David Son Of A Bitch (9:05)
28. La javanaise (4:02)
29. Love On The Beat (15:15)
 
Serge Gainsbourg was the dirty old man of popular music; a French singer/songwriter and provocateur notorious for his voracious appetite for alcohol, cigarettes, and women, his scandalous, taboo-shattering output made him a legend in Europe but only a cult figure in America, where his lone hit "Je T'Aime...Moi Non Plus" stalled on the pop charts -- fittingly enough -- at number 69.
Born Lucien Ginzberg in Paris on April 2, 1928, his parents were Russian Jews who fled to France following the events of the 1917 Bolshevik uprising. After studying art and teaching, he turned to painting before working as a bar pianist on the local cabaret circuit. Soon he was tapped to join the cast of the musical Milord L'Arsoille, where he reluctantly assumed a singing role; self-conscious about his rather homely appearance, Gainsbourg initially wanted only to carve out a niche as a composer and producer, not as a performer.
Still, he made his recording debut in 1958 with the album Du Chant a la Une; while strong efforts like 1961's L'Etonnant Serge Gainsbourg and 1964's Gainsbourg Confidentiel followed, his jazz-inflected solo work performed poorly on the charts, although compositions for vocalists ranging from Petula Clark to Juliette Greco to Dionne Warwick proved much more successful. In the late '60s, he befriended the actress Brigitte Bardot, and later became her lover; with Bardot as his muse, Gainsbourg's lushly arranged music suddenly became erotic and delirious, and together, they performed a series of duets -- including "Bonnie and Clyde," "Harley Davidson," and "Comic Strip" -- celebrating pop culture icons.
Gainsbourg's affair with Bardot was brief, but its effects were irrevocable: after he became involved with constant companion Jane Birkin, they recorded the 1969 duet "Je T'Aime...Moi Non Plus," a song he originally penned for Bardot complete with steamy lyrics and explicit heavy breathing. Although banned in many corners of the globe, it reached the top of the charts throughout Europe, and grew in stature to become an underground classic later covered by performers ranging from Donna Summer to Ray Conniff.
Gainsbourg returned in 1971 with Histoire de Melody Nelson, a dark, complex song cycle which signalled his increasing alienation from modern culture: drugs, disease, suicide and misanthropy became thematic fixtures of his work, which grew more esoteric, inflammatory, and outrageous with each passing release. Although Gainsbourg never again reached the commercial success of his late-'60s peak, he remained an imposing and controversial figure throughout Europe, where he was both vilified and celebrated for his shocking behavior, which included burning 500 francs on a live television broadcast and recording a reggae version of the sacred "La Marseillaise."
Gainsbourg also created a furor with the single "Lemon Incest," a duet with his daughter, the actress Charlotte Gainsbourg. In addition, he posed in drag for the cover of 1984's Love on the Beat, a collection of songs about male hustlers, and made sexual advances towards Whitney Houston on a live TV broadcast. Along with his pop music oeuvre, Gainsbourg scored a number of films, and also directed and appeared in a handful of features, most notably 1976's Je T'Aime...Moi Non Plus, which starred Birkin and Andy Warhol mainstay Joe Dallesandro. He died on March 2, 1991.

Контейнер: FLAC (*.flac)
Тип рипа: tracks
Разрядность: 24/96
Формат: PCM
Количество каналов: 2.0
Код: Выделить всё
foobar2000 1.3.9 / Dynamic Range Meter 1.1.1
log date: 2017-10-05 16:32:27
--------------------------------------------------------------------------------
Analyzed: Serge Gainsbourg / Casino de Paris 1985 (Live) (Super Deluxe Edition)
--------------------------------------------------------------------------------
DR         Peak         RMS     Duration Track
--------------------------------------------------------------------------------
DR10       0.00 dB   -11.21 dB     10:45 01-Love On The Beat
DR10       0.00 dB   -11.94 dB      3:04 02-Initials B.B.
DR11       0.00 dB   -11.64 dB      2:46 03-Harley Davidson
DR11       0.00 dB   -12.15 dB      4:32 04-Sorry Angel
DR11       0.00 dB   -11.84 dB      3:56 05-Aux armes et cætera
DR11       0.00 dB   -12.29 dB      3:34 06-Nazi Rock
DR10       0.00 dB   -12.35 dB      3:11 07-Des laids des laids
DR10       0.00 dB   -13.34 dB      2:57 08-Ballade de Johnny-Jane
DR10       0.00 dB   -11.13 dB      5:00 09-Bonnie And Clyde
DR11       0.00 dB   -11.87 dB      3:01 10-Vieille canaille
DR11       0.00 dB   -12.88 dB      7:13 11-I'm The Boy
DR10       0.00 dB   -11.12 dB      2:43 12-Docteur Jekyll et monsieur Hyde
DR11       0.00 dB   -14.94 dB      1:19 13-Lemon Incest
DR13      -1.21 dB   -20.08 dB      1:09 14-Mickey Maousse
DR10       0.00 dB   -12.02 dB      4:37 15-La nostalgie camarade
DR10       0.00 dB   -11.22 dB      4:40 16-Kiss Me Hardy
DR11      -1.36 dB   -14.90 dB      2:23 17-Dépression au-dessus du jardin
DR11       0.00 dB   -12.30 dB      3:10 18-My Lady Heroine
DR18       0.00 dB   -21.85 dB      6:09 19-Histoires
DR10      -0.14 dB   -12.06 dB      3:25 20-Je suis venu te dire que je m'en vais
DR11       0.00 dB   -12.77 dB      3:06 21-L'eau à la bouche
DR10       0.00 dB   -11.54 dB      3:24 22-Lola rastaquouère
DR18       0.00 dB   -22.33 dB      2:56 23-Présentation musiciens
DR10       0.00 dB   -11.59 dB      3:01 24-Marilou sous la neige
DR10       0.00 dB   -11.45 dB      4:37 25-No Comment
DR11       0.00 dB   -11.49 dB      2:38 26-Hmm hmm hmm
DR11       0.00 dB   -12.37 dB      9:05 27-Harley David Son Of A Bitch
DR11      -0.93 dB   -15.79 dB      4:02 28-La javanaise
DR11       0.00 dB   -12.97 dB     15:15 29-Love On The Beat
--------------------------------------------------------------------------------
Number of tracks:  29
Official DR value: DR11
Samplerate:        96000 Hz
Channels:          2
Bits per sample:   24
Bitrate:           2979 kbps
Codec:             FLAC
================================================================================
Источник: hdtracks.com[/spoiler]
Не забывайте говорить Спасибо. Не уходите с раздачи!   
Торрент: Зарегистрирован [05 окт 2017, 14:47]
Статус:
Проверен
 
.torrent скачан: 0 раз
Хэш: d1659f643f5956e0152980ea4fbeaecbf3a00e2b
Размер: 2.66 ГБ (2 851 826 654 байт)
   Стать Автором раздачи
   
Цитата
  • Похожие торренты
    Ответы
    Просмотры
    Последнее сообщение

Вернуться в Поп-музыка (Hi-Res stereo)

Кто сейчас на конференции

Сейчас эту тему просматривают: нет зарегистрированных пользователей и гости: 1