[TR24][OF] Solange - When I Get Home - 2019 (Art Pop, Neo Soul)

 Статистика раздачи 
Размер: 415.15 МБ   |  Зарегистрирован: 03 июн 2019, 19:31   |   .torrent скачан: 0 раз
Сидеров: 0  [ 0 байт/сек ]     Личеров: 0  [ 0 байт/сек ]  
  
Аватара пользователя
Главный редактор
Главный редактор
 
Раздал: 90.01 ТБ
Скачал: 3.78 ТБ
Ратио: 24.248
Сообщения: 274856
Стаж: 9 лет 1 месяц 20 дней
Откуда: Санкт-Петербург
СообщениеДобавлено: 03 июн 2019, 19:31


Solange / When I Get Home
Формат записи/Источник записи: [TR24][OF]
Наличие водяных знаков: Нет
Год издания/переиздания диска: 2019
Жанр: Art Pop, Neo Soul
Издатель (лейбл): Saint Records / Columbia / 886447578018
Продолжительность: 00:39:02
Наличие сканов в содержимом раздачи: Только обложка альбома
Треклист:
01. Things I Imagined (01:59)
02. S McGregor (Interlude) (00:16)
03. Down With The Clique (03:42)
04. Way To The Show (02:55)
05. Can I Hold The Mic (Interlude) (00:21)
06. Stay Flo (02:55)
07. Dreams (02:28)
08. Nothing Without Intention (Interlude) (00:23)
09. Almeda (03:56)
10. Time (Is) (03:39)
11. My Skin My Logo (02:55)
12. We Deal With The Freak'n (Interlude) (00:31)
13. Jerrod (03:02)
14. Binz (01:51)
15. Beltway (01:41)
16. Exit Scott (Interlude) (01:01)
17. Sound Of Rain (03:05)
18. Not Screwed! (Interlude) (00:22)
19. I'm A Witness (01:51)
Контейнер: FLAC (*.flac)
Тип рипа: tracks
Разрядность: 24/44,1
Формат: PCM
Количество каналов: 2.0
Код: Выделить всё
foobar2000 1.3.19 / Замер динамического диапазона (DR) 1.1.1
Дата отчёта:  2019-06-04 08:19:42
--------------------------------------------------------------------------------
Анализ:   Solange / When I Get Home
--------------------------------------------------------------------------------
DR         Пики         RMS           Продолжительность трека
--------------------------------------------------------------------------------
DR6       -0.43 дБ    -9.62 дБ      1:59 01-Things I Imagined
DR11      -1.15 дБ   -14.18 дБ      0:17 02-S McGregor (interlude)
DR5       -0.10 дБ    -7.69 дБ      3:42 03-Down With the Clique
DR5       -0.09 дБ    -6.27 дБ      2:55 04-Way to the Show
DR7       -0.44 дБ   -11.77 дБ      0:22 05-Can I Hold the Mic (interlude)
DR5       -0.10 дБ    -7.48 дБ      2:56 06-Stay Flo
DR7       -0.10 дБ    -8.99 дБ      2:28 07-Dreams
DR7        0.00 дБ   -10.52 дБ      0:24 08-Nothing Without Intention (interlude)
DR5       -0.10 дБ    -6.06 дБ      3:56 09-Almeda
DR7       -0.10 дБ    -9.12 дБ      3:40 10-Time (is)
DR6       -0.08 дБ    -8.52 дБ      2:56 11-My Skin My Logo
DR12      -0.10 дБ   -13.59 дБ      0:32 12-We Deal With the Freak'n (intermission)
DR6       -0.80 дБ    -7.76 дБ      3:02 13-Jerrod
DR7       -0.10 дБ    -8.40 дБ      1:51 14-Binz
DR7       -0.10 дБ    -8.76 дБ      1:41 15-Beltway
DR12       0.00 дБ   -15.52 дБ      1:01 16-Exit Scott (interlude)
DR6       -0.10 дБ    -7.73 дБ      3:06 17-Sound of Rain
DR12      -0.53 дБ   -13.88 дБ      0:22 18-Not Screwed! (interlude)
DR5       -0.10 дБ    -8.16 дБ      1:52 19-I'm a Witness
--------------------------------------------------------------------------------
Количество треков: 19
Реальные значения DR: DR7
Частота:   44100 Гц
Каналов:   2
Разрядность:   24
Битрейт:   1308 кбит/с
Кодек:   FLAC
================================================================================
Источник (релизер): https://www.qobuz.com/gb-en/album/when-i-get-home-solange/qu1c8vtgm0kqc
Не забывайте говорить Спасибо. Не уходите с раздачи!   
Торрент: Зарегистрирован [03 июн 2019, 19:31]
Статус:
Проверен
 
.torrent скачан: 0 раз
Хэш: 7e1e39c2053498124669dc7a45d32faabef69387
Размер: 415.15 МБ (435 320 496 байт)
   Стать Автором раздачи
   
Цитата

Вернуться в Поп-музыка (Hi-Res stereo)

Кто сейчас на конференции

Сейчас эту тему просматривают: нет зарегистрированных пользователей и гости: 1