[TR24][OF] Rob Thomas - The Great Unknown - 2015 (Pop Rock)

 Статистика раздачи 
Размер: 509.06 МБ   |  Зарегистрирован: 22 авг 2015, 16:15   |   .torrent скачан: 0 раз
Сидеров: 0  [ 0 байт/сек ]     Личеров: 0  [ 0 байт/сек ]  
  
Аватара пользователя
Главный редактор
Главный редактор
 
Раздал: 90.01 ТБ
Скачал: 3.78 ТБ
Ратио: 24.248
Сообщения: 274856
Стаж: 9 лет 1 месяц 20 дней
Откуда: Санкт-Петербург
СообщениеДобавлено: 22 авг 2015, 16:15


Rob Thomas - The Great Unknown

Формат записи/Источник записи: [TR24][OF]
Год издания/переиздания диска: 2015
Жанр: Pop Rock
Издатель(лейбл): Atlantic Records
Продолжительность: 43:23
Наличие сканов в содержимом раздачи: front
Треклист:
01. I Think We'd Feel Good Together (3:01)
02. Trust You (3:08)
03. Hold On Forever (3:35)
04. Wind It Up (3:09)
05. One Shot (2:51)
06. The Great Unknown (3:38)
07. Absence Of Affection (3:36)
08. Things You Said (3:04)
09. Paper Dolls (3:04)
10. NLYTM (2:47)
11. Heaven Help Me (3:21)
12. Lie To Me (3:45)
13. Pieces (4:20)
Контейнер: FLAC (*.flac)
Тип рипа: tracks
Разрядность: 24bit/44,1kHz
Формат: PCM
Количество каналов: stereo
Источник:
Код: Выделить всё
foobar2000 1.3.8 / Dynamic Range Meter 1.1.1
log date: 2015-08-24 17:39:23
--------------------------------------------------------------------------------
Analyzed: Rob Thomas / The Great Unknown
--------------------------------------------------------------------------------
DR         Peak         RMS     Duration Track
--------------------------------------------------------------------------------
DR6       -1.01 dB    -8.61 dB      3:01 01-I Think We'd Feel Good Together
DR7       -1.01 dB    -9.19 dB      3:08 02-Trust You
DR8       -1.01 dB   -10.85 dB      3:35 03-Hold On Forever
DR6       -1.01 dB    -9.16 dB      3:09 04-Wind It Up
DR6       -1.01 dB    -8.80 dB      2:51 05-One Shot
DR7       -1.01 dB   -11.82 dB      3:38 06-The Great Unknown
DR6       -1.63 dB    -9.32 dB      3:37 07-Absence Of Affection
DR5       -1.01 dB    -8.47 dB      3:04 08-Things You Said
DR5       -1.01 dB    -9.81 dB      3:05 09-Paper Dolls
DR6       -1.00 dB    -9.11 dB      2:47 10-NLYTM
DR6       -1.01 dB    -8.45 dB      3:21 11-Heaven Help Me
DR5       -1.01 dB    -8.91 dB      3:46 12-Lie To Me
DR8       -1.01 dB   -11.95 dB      4:21 13-Pieces
--------------------------------------------------------------------------------
Number of tracks:  13
Official DR value: DR6
Samplerate:        44100 Hz
Channels:          2
Bits per sample:   24
Bitrate:           1446 kbps
Codec:             FLAC
================================================================================
Не забывайте говорить Спасибо. Не уходите с раздачи!   
Торрент: Зарегистрирован [22 авг 2015, 16:15]
Статус:
Проверен
 
.torrent скачан: 0 раз
Хэш: 75d89c62e8438473330dc261a86dcfc53a91de62
Размер: 509.06 МБ (533 788 365 байт)
   Стать Автором раздачи
   
Цитата
  • Похожие торренты
    Ответы
    Просмотры
    Последнее сообщение

Вернуться в Поп-музыка (Hi-Res stereo)

Кто сейчас на конференции

Сейчас эту тему просматривают: нет зарегистрированных пользователей и гости: 1