[TR24][OF] Michael Jackson - The Essential (Compilation) - 2005 / (2012 Remaster) (Pop)

 Статистика раздачи 
Размер: 1.87 ГБ   |  Зарегистрирован: 24 ноя 2016, 08:38   |   .torrent скачан: 0 раз
Сидеров: 0  [ 0 байт/сек ]     Личеров: 0  [ 0 байт/сек ]  
  
Аватара пользователя
Главный редактор
Главный редактор
Я на сайте
 
Раздал: 90.01 ТБ
Скачал: 3.78 ТБ
Ратио: 24.248
Сообщения: 274792
Стаж: 9 лет 1 месяц 19 дней
Откуда: Санкт-Петербург

Michael Jackson / The Essential
Формат записи/Источник записи: [TR24][OF]
Наличие водяных знаков: Нет
Издание: Compilation
Год издания/переиздания диска: 2005 / (2012 Remaster)
Жанр: Pop
Издатель(лейбл): Sony Music Latin
Продолжительность: 2:37:34
Наличие сканов в содержимом раздачи: Только обложка альбома
Треклист:
01. I Want You Back
02. ABC
03. The Love You Save
04. Got To Be There
05. Rockin' Robin
06. Ben
07. Enjoy Yourself
08. Blame It On The Boogie
09. Shake Your Body (Down To The Ground)
10. Don't Stop 'Til You Get Enough
11. Rock With You
12. Off The Wall
13. She's Out Of My Life
14. Can You Feel It
15. The Girl Is Mine
16. Billie Jean
17. Beat It
18. Wanna Be Startin' Somethin'
19. Human Nature
20. P.Y.T. (Pretty Young Thing)
21. Thriller
22. Bad
23. I Just Can't Stop Loving You
24. Leave Me Alone
25. The Way You Make Me Feel
26. Man In The Mirror
27. Dirty Diana
28. Another Part Of Me
29. Smooth Criminal
30. Black Or White
31. Heal The World
32. Remember The Time
33. In The Closet
34. Who Is It
35. Will You Be There
36. Dangerous
37. You Are Not Alone
38. You Rock My World
Контейнер: FLAC (*.flac)
Тип рипа: tracks
Разрядность: 24/44,1
Формат: PCM
Количество каналов: 2.0
Код: Выделить всё
foobar2000 1.2.6 / Замер динамического диапазона (DR) 1.1.1
Дата отчёта:  2016-11-24 09:14:30
--------------------------------------------------------------------------------
Анализ:   Michael Jackson / The Essential Michael Jackson
--------------------------------------------------------------------------------
DR         Пики         RMS           Продолжительность трека
--------------------------------------------------------------------------------
DR7       -0.55 дБ    -9.55 дБ      2:59 01-I Want You Back
DR7       -0.65 дБ    -8.66 дБ      2:58 02-ABC
DR7       -0.54 дБ    -9.38 дБ      3:05 03-The Love You Save
DR8       -0.60 дБ   -10.10 дБ      3:23 04-Got to Be There
DR9       -0.55 дБ   -10.91 дБ      2:33 05-Rockin' Robin
DR9       -1.09 дБ   -12.45 дБ      2:46 06-Ben
DR7       -0.48 дБ    -9.63 дБ      3:25 07-Enjoy Yourself
DR8        0.00 дБ    -9.42 дБ      3:35 08-Blame It on the Boogie
DR6       -0.16 дБ    -8.22 дБ      3:46 09-Shake Your Body (Down to the Ground)
DR8       -0.05 дБ    -9.54 дБ      6:05 10-Don't Stop 'Til You Get Enough
DR6        0.00 дБ    -8.26 дБ      3:24 11-Rock with You
DR7        0.00 дБ    -9.05 дБ      3:47 12-Off the Wall
DR12      -1.22 дБ   -16.39 дБ      3:39 13-She's out of My Life
DR9       -0.37 дБ   -10.63 дБ      3:51 14-Can You Feel It
DR8       -0.20 дБ   -11.14 дБ      3:43 15-The Girl Is Mine
DR8        0.00 дБ    -9.53 дБ      4:56 16-Billie Jean
DR8       -0.52 дБ    -9.79 дБ      4:19 17-Beat It
DR8       -0.02 дБ    -9.42 дБ      4:21 18-Wanna Be Startin' Somethin'
DR10      -0.13 дБ   -11.67 дБ      3:47 19-Human Nature
DR8       -0.26 дБ    -9.80 дБ      4:00 20-P.Y.T. (Pretty Young Thing)
DR7       -0.29 дБ    -8.82 дБ      5:13 21-Thriller
DR6        0.00 дБ    -7.74 дБ      4:07 22-Bad
DR8       -0.27 дБ   -11.82 дБ      4:13 23-I Just Can't Stop Loving You
DR8       -0.20 дБ   -10.40 дБ      4:41 24-Leave Me Alone
DR8        0.00 дБ    -9.29 дБ      4:27 25-The Way You Make Me Feel
DR7       -0.67 дБ   -10.05 дБ      5:21 26-Man in the Mirror
DR7       -0.57 дБ    -9.76 дБ      4:43 27-Dirty Diana
DR6        0.00 дБ    -8.86 дБ      3:47 28-Another Part of Me
DR7        0.00 дБ    -9.07 дБ      4:19 29-Smooth Criminal
DR9       -0.16 дБ   -12.03 дБ      4:17 30-Black or White
DR10      -0.05 дБ   -13.24 дБ      6:26 31-Heal the World
DR8       -0.31 дБ   -10.50 дБ      4:01 32-Remember the Time
DR7        0.00 дБ    -9.08 дБ      4:48 33-In The Closet
DR7        0.00 дБ    -8.53 дБ      4:00 34-Who Is It
DR6       -0.48 дБ    -9.22 дБ      3:44 35-Will You Be There
DR8        0.00 дБ    -9.57 дБ      7:00 36-Dangerous
DR8       -0.30 дБ   -11.00 дБ      4:55 37-You Are Not Alone
DR8        0.00 дБ    -9.89 дБ      5:07 38-You Rock My World
--------------------------------------------------------------------------------
Количество треков: 38
Реальные значения DR: DR8
Частота:   44100 Гц
Каналов:   2
Разрядность:   24
Битрейт:   1727 кбит/с
Кодек:   FLAC
================================================================================


Доп. информация: Ссылка на источник : https://www.highresaudio.com/en/album/view/a6ogv9/michael-jackson-the-essential
Источник (релизер):
Не забывайте говорить Спасибо. Не уходите с раздачи!   
Торрент: Зарегистрирован [24 ноя 2016, 08:38]
Статус:
Проверен
 
.torrent скачан: 0 раз
Хэш: 94fab6231167e8f153b6ff2c6f6f522c5addfa75
Размер: 1.87 ГБ (2 008 451 366 байт)
   Стать Автором раздачи
   
Цитата
  • Похожие торренты
    Ответы
    Просмотры
    Последнее сообщение

Вернуться в Поп-музыка (Hi-Res stereo)

Кто сейчас на конференции

Сейчас эту тему просматривают: нет зарегистрированных пользователей и гости: 1