[TR24][OF] Ed Sheeran - No.6 Collaborations Project - 2019 (Pop)

 Статистика раздачи 
Размер: 578.8 МБ   |  Зарегистрирован: 11 июл 2019, 14:19   |   .torrent скачан: 39 раз
Сидеров: 2  [ 0 байт/сек ]     Личеров: 0  [ 0 байт/сек ]  
  
Аватара пользователя
Главный редактор
Главный редактор
 
Раздал: 90.01 ТБ
Скачал: 3.78 ТБ
Ратио: 24.248
Сообщения: 273876
Стаж: 9 лет 1 месяц 14 дней
Откуда: Санкт-Петербург
СообщениеДобавлено: 11 июл 2019, 14:19


Ed Sheeran / No.6 Collaborations Project
Формат записи/Источник записи: [TR24][OF]
Наличие водяных знаков: Нет
Год издания/переиздания диска: 2019
Жанр: Pop
Издатель (лейбл): Warner Music UK Limited
Продолжительность: 00:49:56
Наличие сканов в содержимом раздачи: Только обложка альбома
Треклист:
1.Ed Sheeran - Beautiful People (feat. Khalid)
2.Ed Sheeran - South of the Border (feat. Camila Cabello & Cardi B)
3.Ed Sheeran - Cross Me (feat. Chance the Rapper & PnB Rock)
4.Ed Sheeran - Take Me Back to London (feat. Stormzy)
5.Ed Sheeran - Best Part of Me (feat. YEBBA)
6.Ed Sheeran & Justin Bieber - I Don't Care
7.Ed Sheeran & Travis Scott - Antisocial
8.Ed Sheeran - Remember The Name (feat. Eminem & 50 Cent)
9.Ed Sheeran - Feels (feat. Young Thug & J Hus)
10.Ed Sheeran - Put It All on Me (feat. Ella Mai)
11.Ed Sheeran - Nothing On You (feat. Paulo Londra & Dave)
12.Ed Sheeran - I Don't Want Your Money (feat. H.E.R.)
13.Ed Sheeran - 1000 Nights (feat. Meek Mill & A Boogie Wit da Hoodie)
14.Ed Sheeran - Way To Break My Heart (feat. Skrillex)
15.Ed Sheeran, Chris Stapleton & Bruno Mars - BLOW
Контейнер: FLAC (*.flac)
Тип рипа: tracks
Разрядность: 24/44,1
Формат: FLAC
Количество каналов: 2.0
Код: Выделить всё
foobar2000 1.4.4 / Замер динамического диапазона (DR) 1.1.1
Дата отчёта:  2019-07-11 21:12:57
--------------------------------------------------------------------------------
Анализ:   Ed Sheeran / No.6 Collaborations Project
--------------------------------------------------------------------------------
DR         Пики         RMS           Продолжительность трека
--------------------------------------------------------------------------------
DR6        0.00 дБ    -7.39 дБ      3:18 01-Beautiful People (feat. Khalid)
DR6        0.00 дБ    -8.92 дБ      3:24 02-South of the Border (feat. Camila Cabello & Cardi B)
DR5        0.00 дБ    -7.54 дБ      3:26 03-Cross Me (feat. Chance the Rapper & PnB Rock)
DR6        0.00 дБ    -7.66 дБ      3:10 04-Take Me Back to London (feat. Stormzy)
DR6        0.00 дБ    -7.76 дБ      4:03 05-Best Part of Me (feat. YEBBA)
DR6        0.00 дБ    -7.87 дБ      3:40 06-I Don't Care
DR5        0.00 дБ    -6.71 дБ      2:42 07-Antisocial
DR7        0.00 дБ    -8.47 дБ      3:28 08-Remember The Name (feat. Eminem & 50 Cent)
DR6        0.00 дБ    -7.54 дБ      2:31 09-Feels (feat. Young Thug & J Hus)
DR6        0.00 дБ    -9.74 дБ      3:17 10-Put It All on Me (feat. Ella Mai)
DR5        0.00 дБ    -6.83 дБ      3:21 11-Nothing On You (feat. Paulo Londra & Dave)
DR7        0.00 дБ    -9.09 дБ      3:25 12-I Don't Want Your Money (feat. H.E.R.)
DR5        0.00 дБ    -6.84 дБ      3:32 13-1000 Nights (feat. Meek Mill & A Boogie Wit da Hoodie)
DR5        0.00 дБ    -7.54 дБ      3:10 14-Way To Break My Heart (feat. Skrillex)
DR6        0.00 дБ    -8.00 дБ      3:29 15-BLOW
--------------------------------------------------------------------------------
Количество треков: 15
Реальные значения DR: DR6
Частота:   44100 Гц
Каналов:   2
Разрядность:   24
Битрейт:   1601 кбит/с
Кодек:   FLAC
================================================================================
Источник (релизер): Tidal
Mastered for Tidal
Не забывайте говорить Спасибо. Не уходите с раздачи!   
Торрент: Зарегистрирован [11 июл 2019, 14:19]
Статус:
Проверен
 
.torrent скачан: 39 раз
Хэш: 8a90b4ed8f880ec4e2b27c9085f27411bb0e2f5b
Размер: 578.8 МБ (606 913 211 байт)
   Стать Автором раздачи
   
Цитата
  • Похожие торренты
    Ответы
    Просмотры
    Последнее сообщение

Вернуться в Поп-музыка (Hi-Res stereo)

Кто сейчас на конференции

Сейчас эту тему просматривают: нет зарегистрированных пользователей и гости: 1