[TR24][OF] Julio Iglesias - Mexico & Amigos - 2017 (Pop, Latin)

 Статистика раздачи 
Размер: 607.76 МБ   |  Зарегистрирован: 23 авг 2017, 20:56   |   .torrent скачан: 0 раз
Сидеров: 0  [ 0 байт/сек ]     Личеров: 0  [ 0 байт/сек ]  
  
Аватара пользователя
Главный редактор
Главный редактор
 
Раздал: 90.01 ТБ
Скачал: 3.78 ТБ
Ратио: 24.248
Сообщения: 273485
Стаж: 9 лет 1 месяц 10 дней
Откуда: Санкт-Петербург
СообщениеДобавлено: 23 авг 2017, 20:56


Julio Iglesias - México & Amigos
Формат записи/Источник записи: [TR24][OF]
Наличие водяных знаков: Нет
Год издания/переиздания диска: 2017
Жанр: Pop, Latin
Издатель (лейбл): Sony Music Latin
Продолжительность: 43:38
Наличие сканов в содержимом раздачи: Только обложка альбома
Треклист:
01. Usted (3:29)
02. Júrame (4:08)
03. Ella (3:46)
04. Fallaste Corazón (4:01)
05. Quién Será (3:42)
06. Amanecí en Tus Brazos (3:18)
07. Échame a Mi la Culpa (3:37)
08. Juan Charrasqueado (3:38)
09. Y Nos Dieron las Diez (4:54)
10. La Media Vuelta (3:18)
11. Se Me Olvidó Otra Vez (3:01)
12. México Lindo (2:47) 

Контейнер: FLAC (*.flac)
Тип рипа: tracks
Разрядность: 24/48
Количество каналов: 2.0
Код: Выделить всё
foobar2000 1.3.9 / Dynamic Range Meter 1.1.1
log date: 2017-08-23 23:54:10
--------------------------------------------------------------------------------
Analyzed: Julio Iglesias / México & Amigos
--------------------------------------------------------------------------------
DR         Peak         RMS     Duration Track
--------------------------------------------------------------------------------
DR5       -1.75 dB    -8.88 dB      3:29 01-Usted
DR6       -1.21 dB    -9.75 dB      4:08 02-Júrame
DR5       -1.31 dB    -8.14 dB      3:46 03-Ella
DR6       -1.08 dB    -8.72 dB      4:01 04-Fallaste Corazón
DR6       -1.42 dB    -8.60 dB      3:42 05-Quién Será
DR7       -0.97 dB    -9.24 dB      3:18 06-Amanecí en Tus Brazos
DR7       -0.97 dB    -9.70 dB      3:37 07-Échame a Mi la Culpa
DR6       -0.99 dB    -9.00 dB      3:38 08-Juan Charrasqueado
DR6       -1.34 dB    -8.95 dB      4:54 09-Y Nos Dieron las Diez
DR7       -1.06 dB    -9.70 dB      3:18 10-La Media Vuelta
DR5       -2.32 dB    -9.16 dB      3:01 11-Se Me Olvidó Otra Vez
DR7       -1.11 dB   -10.17 dB      2:47 12-México Lindo
--------------------------------------------------------------------------------
Number of tracks:  12
Official DR value: DR6
Samplerate:        48000 Hz
Channels:          2
Bits per sample:   24
Bitrate:           1920 kbps
Codec:             FLAC
================================================================================
Источник: hdtracks.com[/spoiler]
Не забывайте говорить Спасибо. Не уходите с раздачи!   
Торрент: Зарегистрирован [23 авг 2017, 20:56]
Статус:
Проверен
 
.torrent скачан: 0 раз
Хэш: 984e6b83e92fa33617fc66b9484437f21192883c
Размер: 607.76 МБ (637 283 564 байт)
   Стать Автором раздачи
   
Цитата
  • Похожие торренты
    Ответы
    Просмотры
    Последнее сообщение

Вернуться в Поп-музыка (Hi-Res stereo)

Кто сейчас на конференции

Сейчас эту тему просматривают: нет зарегистрированных пользователей и гости: 1