[SACD-R][OF] Mariah Carey - #1's (Compilation) - 1999 (Pop)

 Статистика раздачи 
Размер: 2.97 ГБ   |  Зарегистрирован: 29 ноя 2016, 08:25   |   .torrent скачан: 0 раз
Сидеров: 0  [ 0 байт/сек ]     Личеров: 0  [ 0 байт/сек ]  
  
Аватара пользователя
Главный редактор
Главный редактор
 
Раздал: 90.01 ТБ
Скачал: 3.78 ТБ
Ратио: 24.248
Сообщения: 274043
Стаж: 9 лет 1 месяц 16 дней
Откуда: Санкт-Петербург
СообщениеДобавлено: 29 ноя 2016, 08:25


Mariah Carey / #1's
Формат записи/Источник записи: [SACD-R][OF]
Наличие водяных знаков: Нет
Издание: Compilation
Год издания/переиздания диска: 1999
Жанр: Pop
Издатель(лейбл): Columbia Records
Продолжительность: 69:23
Наличие сканов в содержимом раздачи: Да (сканы)
Треклист:
1. Sweetheart (feat. JD)
2. When You Believe (From The Prince Of Egypt) (Mariah Carey & Whitney Houston)
3. Whenever You Call (Mariah Carey & Brian Mcknight)
4. My All
5. Honey
6. Always Be My Baby
7. One Sweet Day (Mariah Carey & Boyz II Men)
8. Fantasy (feat. O.D.B.)
9. Hero
10. Dreamlover
11. I'll Be There (feat. Trey Lorenz)
12. Emotions
13. I Don't Wanna Cry
14. Someday
15. Love Takes Time
16. Vision Of Love
17. I Still Believe
Контейнер: ISO (*.iso)
Тип рипа: image
Разрядность: 2.8 MHz
Формат: DSD
Количество каналов: 2.0
Код: Выделить всё
foobar2000 1.3.13 / Замер динамического диапазона (DR) 1.1.1
Дата отчёта:  2016-11-29 10:18:40
--------------------------------------------------------------------------------
Анализ:   ? / ?
--------------------------------------------------------------------------------
DR         Пики         RMS           Продолжительность трека
--------------------------------------------------------------------------------
DR8       -6.02 дБ   -15.21 дБ      4:22 01-Sweetheart
DR9       -5.99 дБ   -17.35 дБ      4:34 02-When You Believe (from The Prince Of Egypt)
DR7       -5.96 дБ   -15.67 дБ      4:21 03-Whenever You Call
DR9       -5.96 дБ   -18.01 дБ      3:50 04-My All
DR9       -6.04 дБ   -16.63 дБ      4:59 05-Honey
DR10      -6.07 дБ   -18.39 дБ      4:18 06-Always Be My Baby
DR9       -6.00 дБ   -18.27 дБ      4:41 07-One Sweet Day
DR9       -6.33 дБ   -16.67 дБ      4:50 08-Fantasy
DR10      -5.84 дБ   -18.52 дБ      4:17 09-Hero
DR10      -6.00 дБ   -16.99 дБ      3:52 10-Dreamlover
DR10      -6.17 дБ   -18.48 дБ      4:24 11-I'll Be There
DR8       -6.04 дБ   -15.89 дБ      4:08 12-Emotions
DR9       -6.05 дБ   -16.99 дБ      4:49 13-I Don't Wanna Cry
DR8       -6.03 дБ   -15.84 дБ      4:06 14-Someday
DR9       -6.05 дБ   -17.95 дБ      3:48 15-Love Takes Time
DR8       -6.11 дБ   -16.35 дБ      3:29 16-Vision Of Love
DR8       -5.94 дБ   -16.42 дБ      3:55 17-I Still Believe
--------------------------------------------------------------------------------
Количество треков: 17
Реальные значения DR: DR9
Частота:   88200 Гц
Каналов:   2
Разрядность:   24
Битрейт:   5645 кбит/с
Кодек:   DSD64
================================================================================
Источник (релизер): https://www.discogs.com/Mariah-Carey-1s/release/500036
Не забывайте говорить Спасибо. Не уходите с раздачи!   
Торрент: Зарегистрирован [29 ноя 2016, 08:25]
Статус:
Проверен
 
.torrent скачан: 0 раз
Хэш: 59be27be86c1e1479d43ae25976517a61a440640
Размер: 2.97 ГБ (3 193 657 949 байт)
   Стать Автором раздачи
   
Цитата
  • Похожие торренты
    Ответы
    Просмотры
    Последнее сообщение

Вернуться в Поп-музыка (Hi-Res stereo)

Кто сейчас на конференции

Сейчас эту тему просматривают: нет зарегистрированных пользователей и гости: 1