[TR24][OF] Charles Aznavour - Desormais... (Remastered) - 1969/2016 (French Pop, Chanson)

 Статистика раздачи 
Размер: 1.2 ГБ   |  Зарегистрирован: 26 фев 2018, 19:55   |   .torrent скачан: 0 раз
Сидеров: 0  [ 0 байт/сек ]     Личеров: 0  [ 0 байт/сек ]  
  
Аватара пользователя
Главный редактор
Главный редактор
Я на сайте
 
Раздал: 90.01 ТБ
Скачал: 3.78 ТБ
Ратио: 24.248
Сообщения: 274792
Стаж: 9 лет 1 месяц 19 дней
Откуда: Санкт-Петербург

Charles Aznavour - Désormais...
Формат записи/Источник записи: [TR24][OF]
Наличие водяных знаков: Нет
Издание: Remastered
Год издания/переиздания диска: 1969/2016
Жанр: French Pop, Chanson
Издатель (лейбл): Barclay
Продолжительность: 30:51
Наличие сканов в содержимом раздачи: Только обложка альбома
Треклист:
01. Désormais (3:15)
02. Au nom de la jeunesse (3:27)
03. La lumière (3:34)
04. S'il y avait une autre toi (2:14)
05. Marie l'orpheline (3:10)
06. Quand et puis pourquoi ? (2:10)
07. Je n'oublierai jamais (5:09)
08. Comme l'eau, le feu, le vent (1:49)
09. On a toujours le temps (3:03)
10. L'amour (3:00)
 
Charles Aznavour est peut-être la figure du music-hall français la plus connue dans le monde, célèbre pour ses chansons d'amour douces-amères, qui semblent incarner l'essence même de la chanson populaire française, ainsi que pour ses apparitions au cinéma. À ses débuts, il a dû apprendre à surmonter ses craintes au sujet de ses faiblesses vocales, notamment avec l'aide de la légendaire Édith Piaf, dont il était le chauffeur. Elle l'a aidé à développer un style adapté à ses capacités et à jouer sur ses points forts. Il a continué à se consacrer à l'écriture, et certaines de ses chansons ont été chantées par Piaf.

Контейнер: FLAC (*.flac)
Тип рипа: tracks
Разрядность: 24/192
Формат: PCM
Количество каналов: 2.0
Код: Выделить всё
foobar2000 1.3.9 / Dynamic Range Meter 1.1.1
log date: 2018-02-26 15:23:53
--------------------------------------------------------------------------------
Analyzed: Charles Aznavour / Désormais... (Remastered)
--------------------------------------------------------------------------------
DR         Peak         RMS     Duration Track
--------------------------------------------------------------------------------
DR8       -0.10 dB   -10.00 dB      3:15 01-Désormais
DR8       -1.08 dB   -10.57 dB      3:27 02-Au nom de la jeunesse
DR8       -0.10 dB   -10.47 dB      3:34 03-La lumière
DR7       -1.56 dB   -10.92 dB      2:14 04-S'il y avait une autre toi
DR8       -0.10 dB   -11.78 dB      3:10 05-Marie l'orpheline
DR7       -0.10 dB    -9.60 dB      2:10 06-Quand et puis pourquoi ?
DR8       -0.10 dB    -9.89 dB      5:09 07-Je n'oublierai jamais
DR9       -0.10 dB   -10.08 dB      1:49 08-Comme l'eau, le feu, le vent
DR7       -0.57 dB   -10.41 dB      3:03 09-On a toujours le temps
DR8       -0.10 dB   -10.22 dB      3:00 10-L'amour
--------------------------------------------------------------------------------
Number of tracks:  10
Official DR value: DR8
Samplerate:        192000 Hz
Channels:          2
Bits per sample:   24
Bitrate:           5100 kbps
Codec:             FLAC
================================================================================
Источник: qobuz.com[/spoiler]
Не забывайте говорить Спасибо. Не уходите с раздачи!   
Торрент: Зарегистрирован [26 фев 2018, 19:55]
Статус:
Проверен
 
.torrent скачан: 0 раз
Хэш: a9799cd7c7a796b94b3beea5425f395d39a7c9ae
Размер: 1.2 ГБ (1 291 907 904 байт)
   Стать Автором раздачи
   
Цитата
  • Похожие торренты
    Ответы
    Просмотры
    Последнее сообщение

Вернуться в Поп-музыка (Hi-Res stereo)

Кто сейчас на конференции

Сейчас эту тему просматривают: нет зарегистрированных пользователей и гости: 1