[TR24][OF] Cyndi Lauper - True Colors - 1986/2016 (Pop, Pop Rock, Synth-pop)

 Статистика раздачи 
Размер: 1.45 ГБ   |  Зарегистрирован: 11 сен 2017, 11:48   |   .torrent скачан: 0 раз
Сидеров: 0  [ 0 байт/сек ]     Личеров: 0  [ 0 байт/сек ]  
  
Аватара пользователя
Главный редактор
Главный редактор
Я на сайте
 
Раздал: 90.01 ТБ
Скачал: 3.78 ТБ
Ратио: 24.248
Сообщения: 273585
Стаж: 9 лет 1 месяц 11 дней
Откуда: Санкт-Петербург

Cyndi Lauper / True Colors
Формат записи/Источник записи: [TR24][OF]
Наличие водяных знаков: Нет
Год издания/переиздания диска: 1986/2016
Жанр: Pop, Pop Rock, Synth-pop
Издатель (лейбл): Epic/Legacy
Продолжительность: 00:38:07
Наличие сканов в содержимом раздачи: Только обложка альбома
Треклист:
01. Change of Heart
02. Maybe He'll Know
03. Boy Blue
04. True Colors
05. Calm Inside the Storm
06. What's Going On
07. Iko Iko
08. The Faraway Nearby
09. 911
10. One Track Mind
Контейнер: FLAC (*.flac)
Тип рипа: tracks
Разрядность: 24/192
Формат: PCM
Количество каналов: 2.0
Код: Выделить всё
foobar2000 1.3.11 / Dynamic Range Meter 1.1.1
log date: 2016-09-09 21:45:22
--------------------------------------------------------------------------------
Analyzed: Cyndi Lauper / True Colors
--------------------------------------------------------------------------------
DR         Peak         RMS     Duration Track
--------------------------------------------------------------------------------
DR8       -0.20 dB   -10.52 dB      4:25 01-Change of Heart
DR11      -0.20 dB   -13.20 dB      4:27 02-Maybe He'll Know
DR10      -0.20 dB   -12.59 dB      4:47 03-Boy Blue
DR11      -1.10 dB   -15.87 dB      3:48 04-True Colors
DR11      -0.20 dB   -12.99 dB      3:55 05-Calm Inside the Storm
DR10      -0.20 dB   -12.36 dB      4:38 06-What's Going On (feat. Chuck D)
DR13      -0.66 dB   -16.18 dB      2:10 07-Iko Iko
DR11      -0.45 dB   -12.56 dB      2:59 08-The Faraway Nearby
DR11      -0.20 dB   -12.56 dB      3:16 09-911
DR11      -0.46 dB   -13.44 dB      3:42 10-One Track Mind
--------------------------------------------------------------------------------
Number of tracks:  10
Official DR value: DR11
Samplerate:        192000 Hz
Channels:          2
Bits per sample:   24
Bitrate:           5637 kbps
Codec:             FLAC
================================================================================
Источник (релизер): hdtracks.com
Не забывайте говорить Спасибо. Не уходите с раздачи!   
Торрент: Зарегистрирован [11 сен 2017, 11:48]
Статус:
Проверен
 
.torrent скачан: 0 раз
Хэш: 7fdb82b22a78e738344359c515305769358d07f0
Размер: 1.45 ГБ (1 552 016 857 байт)
   Стать Автором раздачи
   
Цитата
  • Похожие торренты
    Ответы
    Просмотры
    Последнее сообщение

Вернуться в Поп-музыка (Hi-Res stereo)

Кто сейчас на конференции

Сейчас эту тему просматривают: нет зарегистрированных пользователей и гости: 1