[TR24][OF] Whitney Houston - Whitney - 1987/2014 (Pop, R&B, Dance, Adult Contemporary)

 Статистика раздачи 
Размер: 1.17 ГБ   |  Зарегистрирован: 16 апр 2015, 06:47   |   .torrent скачан: 0 раз
Сидеров: 0  [ 0 байт/сек ]     Личеров: 0  [ 0 байт/сек ]  
  
Аватара пользователя
Главный редактор
Главный редактор
 
Раздал: 90.01 ТБ
Скачал: 3.78 ТБ
Ратио: 24.248
Сообщения: 273485
Стаж: 9 лет 1 месяц 11 дней
Откуда: Санкт-Петербург

Whitney Houston
Whitney

Год издания/переиздания диска: 1987/2014
Жанр: Pop, R&B, Dance, Adult Contemporary
Издатель (лейбл): Arista / Legacy
Продолжительность: 00:53:09
Наличие сканов: Sleeve


01. I Wanna Dance with Somebody (Who Loves Me) (4:53)
02. Just the Lonely Talking Again (5:34)
03. Love Will Save the Day (5:25)
04. Didn't We Almost Have It All (5:07)
05. So Emotional (4:37)
06. Where You Are (4:11)
07. Love Is a Contact Sport (4:20)
08. You're Still My Man (4:19)
09. For the Love of You (5:34)
10. Where Do Broken Hearts Go (4:39)
11. I Know Him So Well (with Cissy Houston) (4:30)


Контейнер: FLAC (*.flac)
Тип рипа: tracks
Разрядность: 24bit / 96kHz
Количество каналов: 2.0

Whitney is the second studio album by American R&B/pop singer Whitney Houston, released in the United States on June 2, 1987 by Arista Records as the follow-up to her best selling debut album, Whitney Houston. The album catapulted her to international fame. Whitney was certified 9× platinum by the RIAA on November 29, 1995.
The album met the expectations of many people and was sensationally popular after its release. With this album, Houston set historic records on the charts. It debuted at number one on the Billboard 200 chart the issue of June 27, 1987, becoming the first album by a female artist, and only the fifth album by a solo artist to do so. The album remained at the top for eleven consecutive weeks, creating a record; the most cumulative weeks (25 weeks) at number one on the albums chart by a female artist during the 1980s.
Personnel
Digitally remastered
Код: Выделить всё
foobar2000 1.2.2 / Dynamic Range Meter 1.1.1
log date: 2015-04-16 03:23:56
--------------------------------------------------------------------------------
Analyzed: Whitney Houston / Whitney
--------------------------------------------------------------------------------
DR         Peak         RMS     Duration Track
--------------------------------------------------------------------------------
DR10      -0.50 dB   -12.49 dB      4:53 ?-I Wanna Dance with Somebody (Who Loves Me)
DR11      -0.50 dB   -13.27 dB      5:34 ?-Just the Lonely Talking Again
DR10      -0.50 dB   -12.11 dB      5:25 ?-Love Will Save the Day
DR11      -0.50 dB   -13.74 dB      5:07 ?-Didn't We Almost Have It All
DR10      -0.50 dB   -12.09 dB      4:37 ?-So Emotional
DR11      -0.50 dB   -13.84 dB      4:11 ?-Where You Are
DR10      -0.50 dB   -12.67 dB      4:20 ?-Love Is a Contact Sport
DR12      -0.50 dB   -14.78 dB      4:19 ?-You're Still My Man
DR11      -0.50 dB   -13.41 dB      5:34 ?-For the Love of You
DR10      -0.50 dB   -13.59 dB      4:39 ?-Where Do Broken Hearts Go
DR11      -0.50 dB   -15.14 dB      4:30 ?-I Know Him So Well (with Cissy Houston)
--------------------------------------------------------------------------------
Number of tracks:  11
Official DR value: DR11
Samplerate:        96000 Hz
Channels:          2
Bits per sample:   24
Bitrate:           3134 kbps
Codec:             FLAC
================================================================================
При скачивании, если необходимо, переименуйте папку, в которой будет находиться альбом
Большая просьба к скачавшим поддерживать раздачу! Помогайте другим, ведь вам тоже может понадобиться помощь!
Не забываем говорить "Спасибо"!
Комментарии приветствуются!
Whitney Houston Hi-Res[/spoiler]
Не забывайте говорить Спасибо. Не уходите с раздачи!   
Торрент: Зарегистрирован [16 апр 2015, 06:47]
Статус:
Проверен
 
.torrent скачан: 0 раз
Хэш: 54603de5c2c49cf19890425a924ee0bd0f7f2841
Размер: 1.17 ГБ (1 256 610 928 байт)
   Стать Автором раздачи
   
Цитата

Вернуться в Поп-музыка (Hi-Res stereo)

Кто сейчас на конференции

Сейчас эту тему просматривают: нет зарегистрированных пользователей и гости: 1