[TR24][OF] Aimer (エメ) - ninelie EP - 2016 (JPop, JRock)

 Статистика раздачи 
Размер: 474.21 МБ   |  Зарегистрирован: 19 дек 2017, 13:55   |   .torrent скачан: 0 раз
Сидеров: 0  [ 0 байт/сек ]     Личеров: 0  [ 0 байт/сек ]  
  
Аватара пользователя
Главный редактор
Главный редактор
 
Раздал: 90.01 ТБ
Скачал: 3.78 ТБ
Ратио: 24.248
Сообщения: 274043
Стаж: 9 лет 1 месяц 16 дней
Откуда: Санкт-Петербург
СообщениеДобавлено: 19 дек 2017, 13:55


Aimer - ninelie EP
Формат записи/Источник записи: [TR24][OF]
Наличие водяных знаков: Нет
Год издания/переиздания диска: 2016
Жанр: JPop, JRock
Издатель (лейбл): SME Records
Продолжительность: 00:19:27
Наличие сканов в содержимом раздачи: Нет
Треклист:
01. ninelie feat. chelly (EGOIST)
02. Through My Blood <AM>
03. Spica / スピカ
04. ninelie (TV size) feat. chelly (EGOIST)
05. ninelie (instrumental)
Контейнер: FLAC (*.flac)
Тип рипа: tracks
Разрядность: 24/96
Формат: PCM
Количество каналов: 2.0
Код: Выделить всё
foobar2000 1.3.17 / Dynamic Range Meter 1.1.1
log date: 2017-12-19 17:40:03
--------------------------------------------------------------------------------
Analyzed: Aimer(エメ) with chelly (EGOIST) / ninelie EP (1-3)
          Aimer(エメ) / ninelie EP (4-5)
--------------------------------------------------------------------------------
DR         Peak         RMS     Duration Track
--------------------------------------------------------------------------------
DR7       -1.30 dB   -10.91 dB      4:20 01-ninelie
DR6       -1.30 dB   -11.20 dB      1:31 04-ninelie (TV size)
DR8       -1.30 dB   -12.31 dB      4:21 05-ninelie (instrumental)
DR6       -1.30 dB    -8.85 dB      4:04 02-Through My Blood <AM>
DR7       -1.30 dB   -10.31 dB      5:11 03-Spica
--------------------------------------------------------------------------------
Number of tracks:  5
Official DR value: DR7
Samplerate:        96000 Hz
Channels:          2
Bits per sample:   24
Bitrate:           3304 kbps
Codec:             FLAC
================================================================================
Источник: mora.jp
Не забывайте говорить Спасибо. Не уходите с раздачи!   
Торрент: Зарегистрирован [19 дек 2017, 13:55]
Статус:
Проверен
 
.torrent скачан: 0 раз
Хэш: 7f5122e6bd3c06d6f95c73283acb268204f06eb6
Размер: 474.21 МБ (497 249 861 байт)
   Стать Автором раздачи
   
Цитата
  • Похожие торренты
    Ответы
    Просмотры
    Последнее сообщение

Вернуться в Поп-музыка (Hi-Res stereo)

Кто сейчас на конференции

Сейчас эту тему просматривают: нет зарегистрированных пользователей и гости: 1