[TR24][OF] Estas Tonne - Internal Flight (LIVE at Garavasara) - 2013 (Meditative, Instrumental, Guitar)

 Статистика раздачи 
Размер: 1.64 ГБ   |  Зарегистрирован: 27 янв 2016, 18:31   |   .torrent скачан: 0 раз
Сидеров: 0  [ 0 байт/сек ]     Личеров: 0  [ 0 байт/сек ]  
  
Аватара пользователя
Главный редактор
Главный редактор
 
Раздал: 90.01 ТБ
Скачал: 3.78 ТБ
Ратио: 24.248
Сообщения: 274856
Стаж: 9 лет 1 месяц 20 дней
Откуда: Санкт-Петербург

Estas Tonne / Internal Flight (LIVE at Garavasara)
Жанр: Meditative, Instrumental, Guitar
Носитель: WEB
Год издания: 2013
Страна исполнителя (группы): Ukraine, Germany
Аудиокодек: FLAC (*.flac)
Тип рипа: tracks
Битрейт аудио: lossless 24/44,1
Продолжительность: 03:03:33
Источник (релизер): bandcamp a donation-based
Наличие сканов в содержимом раздачи: нет
Треклист:
[13:57] 1. Introduction
[31:55] 2. Internal Journey
[34:09] 3. Letting Go
[31:38] 4. Flying Free
[18:59] 5. Cuckoo Medicine
[17:56] 6. Joy is Here
[35:02] 7. Closing the Circle
Credits:
[guitar, voice] - Estas Tonne
[percussions] - Alex Ostapenko
[percussions] - Ilya Bobrovsky
[voice, percussions] - Anna Trish
[electric guitar, voice] - Shacham Zacharin
Видео Internal Flight:
1920х1080 HDRip
foobar2000 1.3.9 / Замер динамического диапазона (DR) 1.1.1
Дата отчёта: 2016-01-29 08:22:21
--------------------------------------------------------------------------------
Анализ: Estas Tonne, Shacham Zacharin, Anna Trish, Alex Ostapenko,Ilya Bobrovsky, / Internal Flight LIVE at Garavasara 2013
--------------------------------------------------------------------------------
DR Пики RMS Продолжительность трека
--------------------------------------------------------------------------------
DR18 -10.64 дБ -38.57 дБ 13:57 01-01.Introduction
DR14 0.00 дБ -18.67 дБ 31:55 02-02.Internal Journey
DR15 -1.25 дБ -21.90 дБ 34:08 03-03.Letting Go
DR13 0.00 дБ -17.27 дБ 31:38 04-04.Flying Free
DR13 -0.55 дБ -20.87 дБ 18:59 05-05.Cuckoo Medicine
DR13 0.00 дБ -17.13 дБ 17:55 06-06.Joy is Here
DR19 -2.46 дБ -28.91 дБ 35:01 07-07.Closing the Circle
--------------------------------------------------------------------------------
Количество треков: 7
Реальные значения DR: DR15
Частота: 44100 Гц
Каналов: 2
Разрядность: 24
Битрейт: 1134 кбит/с
Кодек: FLAC
================================================================================
Lossless Audio Checker 1.9.1 logfile from Friday 29 January 2016 12:06:48 AM
File: C:\Estas Tonne - Internal Flight (LIVE at Garavasara) [2013] WEB\01. Introduction.flac
Result: LOSSLESS
File: C:\Estas Tonne - Internal Flight (LIVE at Garavasara) [2013] WEB\02. Internal Journey.flac
Result: LOSSLESS
File: C:\Estas Tonne - Internal Flight (LIVE at Garavasara) [2013] WEB\03. Letting Go.flac
Result: LOSSLESS
File: C:\Estas Tonne - Internal Flight (LIVE at Garavasara) [2013] WEB\04. Flying Free.flac
Result: LOSSLESS
File: C:\Estas Tonne - Internal Flight (LIVE at Garavasara) [2013] WEB\05. Cuckoo Medicine.flac
Result: LOSSLESS
File: C:\Estas Tonne - Internal Flight (LIVE at Garavasara) [2013] WEB\06. Joy is Here.flac
Result: LOSSLESS
File: C:\Estas Tonne - Internal Flight (LIVE at Garavasara) [2013] WEB\07. Closing the Circle.flac
Result: LOSSLESS
Files checked: 7 | Lossless: 7 | Cutoff: 0 | Error: 0 | Elapsed time: 00:08:53.771
Не забывайте говорить Спасибо. Не уходите с раздачи!   
Торрент: Зарегистрирован [27 янв 2016, 18:31]
Статус:
Проверен
 
.torrent скачан: 0 раз
Хэш: 34643ba15098b195b8600a687e8677ae060a30f2
Размер: 1.64 ГБ (1 757 218 477 байт)
   Стать Автором раздачи
   
Цитата

Вернуться в Поп-музыка (Hi-Res stereo)

Кто сейчас на конференции

Сейчас эту тему просматривают: нет зарегистрированных пользователей и гости: 1