[TR24][OF] Samantha Sang - Emotion - 1977/2016 (Pop, Soul, Disco)

 Статистика раздачи 
Размер: 383.77 МБ   |  Зарегистрирован: 10 янв 2018, 20:18   |   .torrent скачан: 0 раз
Сидеров: 9  [ 0 байт/сек ]     Личеров: 2  [ 0 байт/сек ]  
  
Аватара пользователя
Главный редактор
Главный редактор
Я на сайте
 
Раздал: 90.01 ТБ
Скачал: 3.78 ТБ
Ратио: 24.248
Сообщения: 274792
Стаж: 9 лет 1 месяц 19 дней
Откуда: Санкт-Петербург

Samantha Sang - Emotion
Формат записи/Источник записи: [TR24][OF]
Наличие водяных знаков: Нет
Год издания/переиздания диска: 1977/2016
Жанр: Pop, Soul, Disco
Издатель (лейбл): Private Stock Records
Продолжительность: 36:57
Наличие сканов в содержимом раздачи: Только обложка альбома
Источник: WRZmusic
Магазин: qobuz.com
Треклист:
01. You Keep Me Dancing (2:57)
02. Charade (3:23)
03. Emotion (3:57)
04. Change Of Heart (3:13)
05. Living Without Your Love (3:53)
06. La La La-I Love You (4:03)
07. But If She Moves You (4:13)
08. When Love Is Gone (3:51)
09. I Don't Wanna Go (3:33)
10. The Love Of A Woman (3:54) 

Контейнер: FLAC (*.flac)
Тип рипа: tracks
Разрядность: 24/44,1
Формат: PCM
Количество каналов: 2.0
Код: Выделить всё
foobar2000 1.3.9 / Dynamic Range Meter 1.1.1
log date: 2018-01-10 23:08:57
--------------------------------------------------------------------------------
Analyzed: Samantha Sang / Emotion
--------------------------------------------------------------------------------
DR         Peak         RMS     Duration Track
--------------------------------------------------------------------------------
DR13      -1.21 dB   -16.28 dB      2:57 01-You Keep Me Dancing
DR10      -1.18 dB   -13.87 dB      3:23 02-Charade
DR9       -1.25 dB   -12.35 dB      3:57 03-Emotion
DR9       -1.25 dB   -13.55 dB      3:13 04-Change Of Heart
DR10      -1.25 dB   -14.58 dB      3:53 05-Living Without Your Love
DR10      -1.18 dB   -14.34 dB      4:03 06-La La La-I Love You
DR10      -1.21 dB   -14.03 dB      4:13 07-But If She Moves You
DR9       -1.18 dB   -13.48 dB      3:51 08-When Love Is Gone
DR12      -1.21 dB   -16.27 dB      3:33 09-I Don't Wanna Go
DR11      -1.21 dB   -15.67 dB      3:54 10-The Love Of A Woman
--------------------------------------------------------------------------------
Number of tracks:  10
Official DR value: DR10
Samplerate:        44100 Hz
Channels:          2
Bits per sample:   24
Bitrate:           1459 kbps
Codec:             FLAC
================================================================================
Не забывайте говорить Спасибо. Не уходите с раздачи!   
Торрент: Зарегистрирован [10 янв 2018, 20:18]
Статус:
Проверен
 
.torrent скачан: 0 раз
Хэш: f9375df9c07c475de6385b0aa0b13a17a895e6d1
Размер: 383.77 МБ (402 415 638 байт)
   Стать Автором раздачи
   
Цитата

Вернуться в Поп-музыка (Hi-Res stereo)

Кто сейчас на конференции

Сейчас эту тему просматривают: нет зарегистрированных пользователей и гости: 1