[TR24][OF] Gabrielle - Under My Skin - 2018 (Pop | Soul | RnB)

 Статистика раздачи 
Размер: 968.2 МБ   |  Зарегистрирован: 19 авг 2018, 17:41   |   .torrent скачан: 0 раз
Сидеров: 0  [ 0 байт/сек ]     Личеров: 0  [ 0 байт/сек ]  
  
Аватара пользователя
Главный редактор
Главный редактор
 
Раздал: 90.01 ТБ
Скачал: 3.78 ТБ
Ратио: 24.248
Сообщения: 274898
Стаж: 9 лет 1 месяц 21 день
Откуда: Санкт-Петербург
СообщениеДобавлено: 19 авг 2018, 17:41



Gabrielle


Under My Skin



• Формат записи | Источник записи: [TR24][OF]
• Наличие водяных знаков: Нет
• Страна исполнителя: UK
• Год издания релиза: 2018
• Жанр: Pop | Soul | RnB
• Издатель (лейбл): BNG
• Продолжительность: 00:44:54
• Источник, релизер: BNMus
• WEB релиз: qobuz
• Контейнер: FLAC (*.flac)
• Тип рипа: tracks
• Разрядность: 24/96
• Формат: WAV (flac.ape.wv)
• Количество каналов: 2.0
• Наличие сканов: front

01. Under My Skin (00:03:46)
02. Thank You (00:03:28)
03. Show Me (00:03:29)
04. Every Step (00:03:16)
05. Stronger (00:04:23)
06. Put Up A Fight (00:03:42)
07. Signs (00:03:51)
08. Breathe (00:03:57)
09. Young And Crazy (00:03:18)
10. Take A Minute (00:03:30)
11. Won't Back Down (00:04:12)
12. Shine (00:03:57)


Код: Выделить всё
foobar2000 1.3.17 / Замер динамического диапазона (DR) 1.1.1
Дата отчёта:  2018-08-19 20:30:32
--------------------------------------------------------------------------------
Анализ:   Gabrielle / Under My Skin
--------------------------------------------------------------------------------
DR         Пики         RMS           Продолжительность трека
--------------------------------------------------------------------------------
DR5       -1.10 дБ    -9.94 дБ      3:47 01-Under My Skin
DR6       -1.01 дБ    -7.78 дБ      3:29 02-Thank You
DR5       -1.10 дБ    -7.73 дБ      3:29 03-Show Me
DR5       -1.00 дБ    -9.53 дБ      3:16 04-Every Step
DR6       -1.10 дБ    -8.04 дБ      4:23 05-Stronger
DR5       -1.10 дБ    -7.84 дБ      3:42 06-Put Up A Fight
DR6       -1.03 дБ   -11.16 дБ      3:52 07-Signs
DR6       -1.10 дБ   -11.20 дБ      3:58 08-Breathe
DR6       -1.01 дБ    -8.46 дБ      3:18 09-Young And Crazy
DR6       -1.00 дБ    -8.19 дБ      3:31 10-Take A Minute
DR5       -1.10 дБ   -10.90 дБ      4:13 11-Won't Back Down
DR6       -1.10 дБ    -8.61 дБ      3:57 12-Shine
--------------------------------------------------------------------------------
Количество треков: 12
Реальные значения DR: DR6
Частота:   96000 Гц
Каналов:   2
Разрядность:   24
Битрейт:   3108 кбит/с
Кодек:   FLAC
================================================================================


Не забывайте говорить Спасибо. Не уходите с раздачи!   
Торрент: Зарегистрирован [19 авг 2018, 17:41]
Статус:
Проверен
 
.torrent скачан: 0 раз
Хэш: ba7324259719658266913d531f05299a07ddbf03
Размер: 968.2 МБ (1 015 232 359 байт)
   Стать Автором раздачи
   
Цитата
  • Похожие торренты
    Ответы
    Просмотры
    Последнее сообщение

Вернуться в Поп-музыка (Hi-Res stereo)

Кто сейчас на конференции

Сейчас эту тему просматривают: нет зарегистрированных пользователей и гости: 1