[TR24][OF] Edith Piaf - Complete Recordings - 2015 (Chanson française)

 Статистика раздачи 
Размер: 4.6 ГБ   |  Зарегистрирован: 30 мар 2016, 17:48   |   .torrent скачан: 0 раз
Сидеров: 0  [ 0 байт/сек ]     Личеров: 0  [ 0 байт/сек ]  
  
Аватара пользователя
Главный редактор
Главный редактор
 
Раздал: 90.01 ТБ
Скачал: 3.78 ТБ
Ратио: 24.248
Сообщения: 274898
Стаж: 9 лет 1 месяц 21 день
Откуда: Санкт-Петербург

Edith Piaf / Complete Recordings
Формат записи/Источник записи: [TR24][OF]
Наличие водяных знаков: Нет
Год издания/переиздания диска: 2015
Жанр: Chanson française
Издатель(лейбл): BNF Collection
Продолжительность: 08:11:52
Наличие сканов в содержимом раздачи: Только обложка альбома
Контейнер: FLAC (*.flac)
Тип рипа: tracks
Разрядность: 24/96
Формат: WAV (flac.ape.wv)
Количество каналов: 2.0
(Chanson française) Edith Piaf - Complete Recordings - 2015, MP3, 320 kbps
1. La vie en rose (3:09)
2. Hymne à l'amour (3:30)
3. Non, je ne regrette rien (2:23)
4. La foule (3:00)
5. Mon manège à moi (3:04)
6. Padam padam... (3:14)
7. Milord (4:32)
8. Sous le ciel de Paris (3:34)
9. L'homme à la moto (2:09)
10. Mon légionnaire (3:30)
11. L'accordéoniste (3:38)
12. Fais-moi valser (3:27)
13. 'Chand d'habits (2:48)
14. J'suis mordue (3:07)
15. L'étranger (3:30)
16. Mon amant de la coloniale (3:14)
17. Va danser (3:31)
18. Entre Saint-Ouen et Clignancourt (3:05)
19. J'entends la sirène (3:06)
20. Le mauvais matelot (3:43)
21. Un jeune homme chantait (2:59)
22. C'est lui que mon cœur a choisi (3:23)
23. Le fanion de la Légion (3:01)
24. Les marins, ça fait des voyages (3:34)
25. Elle fréquentait la rue Pigalle (3:35)
26. Je n'en connais pas la fin (3:19)
27. Le petit monsieur triste (2:48)
28. L'escale (3:02)
29. C'etait un jour de fête (3:56)
30. J'ai dansé avec l'amour (3:20)
31. J'ai qu'à l'regarder (3:14)
32. Un coin tout bleu (2:47)
33. De l'autre côté de la rue (3:24)
34. Le disque usé (4:07)
35. Un coup de grisou (3:22)
36. C'est toujours la même histoire (4:13)
37. Un monsieur me suit dans la rue (4:47)
38. Y'a pas d'printemps (2:41)
39. Celui qui ne savait pas pleurer (3:40)
40. Il riait (4:32)
41. Monsieur Saint-Pierre (4:38)
42. Les trois cloches (4:12)
43. Mariage (From "Étoile sans lumière") (4:23)
44. Le geste (3:33)
45. Les cloches sonnent (2:57)
46. Edtih Piaf - Si tu partais (3:33)
47. Sophie (4:01)
48. Une chanson à trois temps (4:21)
49. Amour du mois de mai (2:33)
50. Les amants de Paris (3:12)
51. Bal dans ma rue (3:00)
52. Chante-moi (3:18)
53. Du matin jusqu'au soir (3:12)
54. Jezebel (3:04)
55. Noël de la rue (3:18)
56. Télégramme (2:53)
57. Au bal de la chance (2:53)
58. Je t'ai dans la peau (2:46)
59. Mon ami m'a donné (2:34)
60. Monsieur et madame (2:59)
61. Bravo pour le clown ! (3:05)
62. Et moi... (3:19)
63. Heureuse (3:18)
64. Jean et Marine (3:18)
65. Johnny tu n'es pas un ange (2:12)
66. L'effet qu'tu m'fais (3:14)
67. Les amants de Venise (3:11)
68. Les croix (3:33)
69. N'y va pas Manuel (3:02)
70. Pour qu'elle soit jolie ma chanson (From "Boum sur Paris) (3:30)
71. Soeur Anne (3:47)
72. Avec ce soleil (2:22)
73. Enfin le printemps (2:20)
74. La goualante du pauvre Jean (2:07)
75. Le ça ira (2:26)
76. L'homme au piano (2:03)
77. Mea Culpa (3:03)
78. Retour (2:46)
79. C'est à Hambourg (3:00)
80. Miséricorde (3:32)
81. Toi qui sais (3:57)
82. Un grand amour qui s'achève (3:41)
83. Avant nous (2:59)
84. Et pourtant (2:57)
85. Les amants d'un jour (3:16)
86. Marie la française (3:54)
87. Soudain une vallée (3:34)
88. Une dame (2:38)
89. Comme moi (3:00)
90. Les grognards (3:59)
91. Les prisons du roy (3:53)
92. Opinion publique (3:14)
93. Salle d'attente (3:38)
94. C'est un homme terrible (2:11)
95. Fais comme si (From "Les amants de demain") (2:16)
96. Je me souviens d'une chanson (2:49)
97. Le ballet des cœurs (2:28)
98. Le gitan et la fille (4:05)
99. Les orgues de barbarie (2:43)
100. Tatave (3:55)
101. Un étranger (3:25)
102. Je sais comment (3:20)
103. T'es beau, tu sais (4:05)
104. Boulevard du crime (3:04)
105. C'est l'amour (3:00)
106. Cri du cœur (2:39)
107. Eden Blues (3:15)
108. Je suis à toi (3:27)
109. La belle histoire d'amour (4:06)
110. La vie, l'amour (1:50)
111. La ville inconnue (3:52)
112. Le vieux piano (3:13)
113. Les amants merveilleux (2:45)
114. Les flons flons du bal (2:30)
115. Les mots d'amour (3:28)
116. Mon Dieu (3:25)
117. Ouragan (2:17)
118. C'est peut-être ça (2:48)
119. Dans leur baiser (3:32)
120. Exodus (3:32)
121. Faut pas qu'il se figure (4:01)
122. Le billard électrique (3:00)
123. Marie trottoir (2:24)
124. Qu'il était triste cet anglais (4:16)
125. Ça fait drôle (2:46)
126. Carmen's Story (3:20)
127. Emporte-moi (3:12)
128. Fallait-il (2:12)
129. Le petit brouillard (2:57)
130. Les amants de Teruel (From "Les amants de Teruel") (3:23)
131. Musique à tout va (3:27)
132. On cherche un Auguste (3:15)
133. Polichinelle (3:07)
134. Quatorze juillet (From "Les amants de Teruel") (1:58)
135. Toi, tu l'entends pas (2:31)
136. Une valse (3:21)
137. À quoi ça sert l'amour (2:26)
138. Toi qui disais (Live) (3:38)
139. Les blouses blanches (Live) (4:24)
140. T'es l'homme qu'il me faut (Live) (3:10)
141. Mon vieux Lucien (Live) (4:06)
142. Le diable de la Bastille (Live) (3:01)
143. Le droit d'aimer (Live) (3:48)
144. Roulez tambours (Live) (6:00)
145. C'était pas moi (Live) (3:13)
146. J'en ai tant vu (Live) (3:13)
147. Le chant d'amour (Live) (3:28)
148. Margot cœur gros (Live) (3:16)
149. Monsieur incognito (Live) (5:33)
150. Tiens v'la un marin (Live) (3:25)
Код: Выделить всё
foobar2000 1.3.8 / Dynamic Range Meter 1.1.1
log date: 2016-03-30 20:06:37
--------------------------------------------------------------------------------
Analyzed: Edith Piaf / Edith Piaf: Complete Recordings (1-149)
          Edtih Piaf / Edith Piaf: Complete Recordings (150)
--------------------------------------------------------------------------------
DR         Peak         RMS     Duration Track
--------------------------------------------------------------------------------
DR10      -4.07 dB   -17.10 dB      3:09 01-La vie en rose
DR9       -3.17 dB   -16.01 dB      3:30 02-Hymne à l'amour
DR11      -1.92 dB   -15.67 dB      2:23 03-Non, je ne regrette rien
DR12      -2.89 dB   -17.24 dB      3:00 04-La foule
DR13      -0.11 dB   -16.23 dB      3:04 05-Mon manège à moi
DR12      -3.50 dB   -20.53 dB      3:14 06-Padam padam...
DR10      -2.54 dB   -16.20 dB      4:32 07-Milord
DR13      -1.09 dB   -17.31 dB      3:34 08-Sous le ciel de Paris
DR11      -2.55 dB   -16.83 dB      2:09 09-L'homme à la moto
DR8       -6.88 dB   -17.15 dB      3:30 10-Mon légionnaire
DR13      -1.36 dB   -18.93 dB      3:38 11-L'accordéoniste
DR9       -6.77 dB   -18.53 dB      3:27 12-Fais-moi valser
DR9       -6.93 dB   -19.43 dB      2:48 13-'Chand d'habits
DR9       -6.19 dB   -16.45 dB      3:07 14-J'suis mordue
DR9       -5.00 dB   -17.02 dB      3:30 15-L'étranger
DR9       -4.45 dB   -15.70 dB      3:14 16-Mon amant de la coloniale
DR11      -5.09 dB   -18.48 dB      3:31 17-Va danser
DR10      -5.52 dB   -16.73 dB      3:05 18-Entre Saint-Ouen et Clignancourt
DR9       -4.96 dB   -16.05 dB      3:06 19-J'entends la sirène
DR9       -6.01 dB   -16.92 dB      3:43 20-Le mauvais matelot
DR9       -5.18 dB   -16.85 dB      2:59 21-Un jeune homme chantait
DR9       -6.59 dB   -17.73 dB      3:23 22-C'est lui que mon cœur a choisi
DR8       -6.30 dB   -16.86 dB      3:01 23-Le fanion de la Légion
DR10      -6.44 dB   -18.40 dB      3:34 24-Les marins, ça fait des voyages
DR9       -5.68 dB   -18.05 dB      3:35 25-Elle fréquentait la rue Pigalle
DR8       -5.75 dB   -15.63 dB      3:19 26-Je n'en connais pas la fin
DR8       -7.42 dB   -18.49 dB      2:48 27-Le petit monsieur triste
DR8       -6.22 dB   -16.73 dB      3:02 28-L'escale
DR9       -5.32 dB   -15.80 dB      3:56 29-C'etait un jour de fête
DR8       -6.10 dB   -17.07 dB      3:20 30-J'ai dansé avec l'amour
DR8       -5.49 dB   -17.14 dB      3:14 31-J'ai qu'à l'regarder
DR8       -7.25 dB   -18.34 dB      2:47 32-Un coin tout bleu
DR8       -5.44 dB   -16.56 dB      3:24 33-De l'autre côté de la rue
DR9       -4.94 dB   -16.20 dB      4:07 34-Le disque usé
DR9       -5.17 dB   -17.58 dB      3:22 35-Un coup de grisou
DR8       -6.22 dB   -17.57 dB      4:13 36-C'est toujours la même histoire
DR9       -5.48 dB   -16.91 dB      4:47 37-Un monsieur me suit dans la rue
DR12      -3.22 dB   -19.36 dB      2:41 38-Y'a pas d'printemps
DR10      -4.35 dB   -16.60 dB      3:40 39-Celui qui ne savait pas pleurer
DR8       -6.22 dB   -16.51 dB      4:32 40-Il riait
DR9       -5.17 dB   -16.58 dB      4:38 41-Monsieur Saint-Pierre
DR10      -2.31 dB   -16.52 dB      4:12 42-Les trois cloches
DR12      -3.74 dB   -20.73 dB      4:23 43-Mariage (From "Étoile sans lumière")
DR11      -6.00 dB   -19.54 dB      3:33 44-Le geste
DR11      -6.45 dB   -20.07 dB      2:57 45-Les cloches sonnent
DR10      -5.54 dB   -19.58 dB      4:01 47-Sophie
DR11      -5.77 dB   -20.67 dB      4:21 48-Une chanson à trois temps
DR11      -6.21 dB   -20.04 dB      2:33 49-Amour du mois de mai
DR11      -5.25 dB   -20.72 dB      3:12 50-Les amants de Paris
DR11      -4.21 dB   -18.89 dB      3:00 51-Bal dans ma rue
DR14      -0.10 dB   -17.96 dB      3:18 52-Chante-moi
DR13      -0.10 dB   -17.77 dB      3:12 53-Du matin jusqu'au soir
DR11      -2.91 dB   -19.43 dB      3:04 54-Jezebel
DR12      -0.10 dB   -15.88 dB      3:18 55-Noël de la rue
DR13      -0.10 dB   -16.86 dB      2:53 56-Télégramme
DR12      -4.99 dB   -19.91 dB      2:53 57-Au bal de la chance
DR11      -0.10 dB   -16.42 dB      2:46 58-Je t'ai dans la peau
DR13      -1.39 dB   -18.24 dB      2:34 59-Mon ami m'a donné
DR11      -0.34 dB   -16.81 dB      2:59 60-Monsieur et madame
DR9       -5.34 dB   -17.86 dB      3:05 61-Bravo pour le clown !
DR13      -2.01 dB   -17.87 dB      3:19 62-Et moi...
DR10      -2.22 dB   -16.92 dB      3:18 63-Heureuse
DR13      -3.66 dB   -20.34 dB      3:18 64-Jean et Marine
DR12      -2.79 dB   -18.55 dB      2:12 65-Johnny tu n'es pas un ange
DR10      -3.16 dB   -17.36 dB      3:14 66-L'effet qu'tu m'fais
DR10      -4.99 dB   -18.73 dB      3:11 67-Les amants de Venise
DR10      -3.83 dB   -18.46 dB      3:33 68-Les croix
DR14      -0.10 dB   -19.02 dB      3:02 69-N'y va pas Manuel
DR13      -5.18 dB   -23.39 dB      3:30 70-Pour qu'elle soit jolie ma chanson (From "Boum sur Paris)
DR12      -0.10 dB   -15.26 dB      3:47 71-Soeur Anne
DR13      -1.90 dB   -19.72 dB      2:22 72-Avec ce soleil
DR14      -2.32 dB   -19.79 dB      2:20 73-Enfin le printemps
DR13      -1.20 dB   -17.27 dB      2:07 74-La goualante du pauvre Jean
DR12      -1.21 dB   -16.49 dB      2:26 75-Le ça ira
DR13      -4.18 dB   -19.75 dB      2:03 76-L'homme au piano
DR13      -0.79 dB   -19.73 dB      3:03 77-Mea Culpa
DR12      -0.91 dB   -19.81 dB      2:46 78-Retour
DR12      -4.80 dB   -19.38 dB      3:00 79-C'est à Hambourg
DR12      -3.88 dB   -19.09 dB      3:32 80-Miséricorde
DR11      -4.61 dB   -19.83 dB      3:57 81-Toi qui sais
DR12      -1.94 dB   -18.41 dB      3:41 82-Un grand amour qui s'achève
DR11      -4.73 dB   -19.11 dB      2:59 83-Avant nous
DR11      -5.05 dB   -19.81 dB      2:57 84-Et pourtant
DR13      -4.03 dB   -18.55 dB      3:16 85-Les amants d'un jour
DR11      -6.68 dB   -19.85 dB      3:54 86-Marie la française
DR11      -5.10 dB   -20.30 dB      3:34 87-Soudain une vallée
DR13      -4.85 dB   -19.60 dB      2:38 88-Une dame
DR11      -4.21 dB   -19.79 dB      3:00 89-Comme moi
DR12      -0.79 dB   -16.81 dB      3:59 90-Les grognards
DR11      -4.54 dB   -19.70 dB      3:53 91-Les prisons du roy
DR13      -0.11 dB   -17.18 dB      3:14 92-Opinion publique
DR12      -3.06 dB   -19.87 dB      3:38 93-Salle d'attente
DR13      -2.92 dB   -19.23 dB      2:11 94-C'est un homme terrible
DR12      -2.06 dB   -19.61 dB      2:16 95-Fais comme si (From "Les amants de demain")
DR12      -1.42 dB   -17.06 dB      2:49 96-Je me souviens d'une chanson
DR12      -1.59 dB   -16.22 dB      2:28 97-Le ballet des cœurs
DR12      -5.50 dB   -20.95 dB      4:05 98-Le gitan et la fille
DR14      -3.80 dB   -20.87 dB      2:43 99-Les orgues de barbarie
DR12      -3.58 dB   -19.83 dB      3:55 100-Tatave
DR12      -1.58 dB   -17.48 dB      3:25 101-Un étranger
DR12      -3.04 dB   -19.81 dB      3:20 102-Je sais comment
DR13      -0.39 dB   -18.41 dB      4:05 103-T'es beau, tu sais
DR12      -4.85 dB   -19.58 dB      3:04 104-Boulevard du crime
DR12      -0.25 dB   -16.24 dB      3:00 105-C'est l'amour
DR14      -1.44 dB   -18.13 dB      2:39 106-Cri du cœur
DR12      -2.83 dB   -19.30 dB      3:15 107-Eden Blues
DR11      -0.45 dB   -16.63 dB      3:27 108-Je suis à toi
DR11      -6.54 dB   -19.88 dB      4:06 109-La belle histoire d'amour
DR12      -6.85 dB   -20.58 dB      1:50 110-La vie, l'amour
DR11      -4.83 dB   -19.92 dB      3:52 111-La ville inconnue
DR12      -2.04 dB   -17.64 dB      3:13 112-Le vieux piano
DR13      -0.70 dB   -16.33 dB      2:45 113-Les amants merveilleux
DR10      -6.80 dB   -19.84 dB      2:30 114-Les flons flons du bal
DR11      -6.74 dB   -19.82 dB      3:28 115-Les mots d'amour
DR11      -5.86 dB   -19.96 dB      3:25 116-Mon Dieu
DR11      -1.04 dB   -15.06 dB      2:17 117-Ouragan
DR11      -5.06 dB   -18.91 dB      2:48 118-C'est peut-être ça
DR11      -5.44 dB   -19.69 dB      3:32 119-Dans leur baiser
DR11      -5.14 dB   -19.90 dB      3:32 120-Exodus
DR13      -2.38 dB   -18.71 dB      4:01 121-Faut pas qu'il se figure
DR12      -0.92 dB   -15.16 dB      3:00 122-Le billard électrique
DR13      -4.69 dB   -20.24 dB      2:24 123-Marie trottoir
DR14      -0.67 dB   -17.83 dB      4:16 124-Qu'il était triste cet anglais
DR11      -2.45 dB   -16.58 dB      2:46 125-Ça fait drôle
DR12      -1.05 dB   -15.91 dB      3:20 126-Carmen's Story
DR11      -5.50 dB   -19.74 dB      3:12 127-Emporte-moi
DR10      -4.22 dB   -17.17 dB      2:12 128-Fallait-il
DR12      -5.26 dB   -20.02 dB      2:57 129-Le petit brouillard
DR10      -3.39 dB   -16.90 dB      3:23 130-Les amants de Teruel (From "Les amants de Teruel")
DR11      -6.01 dB   -19.60 dB      3:27 131-Musique à tout va
DR12      -3.07 dB   -18.22 dB      3:15 132-On cherche un Auguste
DR13      -1.47 dB   -17.06 dB      3:07 133-Polichinelle
DR12      -3.30 dB   -17.30 dB      1:58 134-Quatorze juillet (From "Les amants de Teruel")
DR11      -5.51 dB   -19.93 dB      2:31 135-Toi, tu l'entends pas
DR10      -3.65 dB   -17.05 dB      3:21 136-Une valse
DR11      -5.39 dB   -20.38 dB      2:26 137-À quoi ça sert l'amour
DR12      -3.82 dB   -20.96 dB      3:38 138-Toi qui disais (Live)
DR12      -2.64 dB   -20.29 dB      4:24 139-Les blouses blanches (Live)
DR13      -1.88 dB   -20.65 dB      3:10 140-T'es l'homme qu'il me faut (Live)
DR12      -3.55 dB   -20.84 dB      4:06 141-Mon vieux Lucien (Live)
DR13      -4.55 dB   -20.54 dB      3:01 142-Le diable de la Bastille (Live)
DR12      -4.64 dB   -20.02 dB      3:48 143-Le droit d'aimer (Live)
DR13      -2.55 dB   -19.31 dB      6:00 144-Roulez tambours (Live)
DR11      -5.10 dB   -19.57 dB      3:13 145-C'était pas moi (Live)
DR12      -5.05 dB   -20.88 dB      3:13 146-J'en ai tant vu (Live)
DR11      -4.79 dB   -19.71 dB      3:28 147-Le chant d'amour (Live)
DR11      -6.03 dB   -19.56 dB      3:16 148-Margot cœur gros (Live)
DR12      -5.45 dB   -20.55 dB      5:33 149-Monsieur incognito (Live)
DR12      -5.26 dB   -19.51 dB      3:25 150-Tiens v'la un marin (Live)
DR13      -0.99 dB   -16.85 dB      3:33 46-Si tu partais
--------------------------------------------------------------------------------
Number of tracks:  150
Official DR value: DR11
Samplerate:        96000 Hz
Channels:          2
Bits per sample:   24
Bitrate:           1368 kbps
Codec:             FLAC
================================================================================
http://www.edithpiaf.org/
https://en.wikipedia.org/wiki/Edith_Piaf
http://www.youtube.com/user/EdithPiaf
Источник (релизер):
Не забывайте говорить Спасибо. Не уходите с раздачи!   
Торрент: Зарегистрирован [30 мар 2016, 17:48]
Статус:
Проверен
 
.torrent скачан: 0 раз
Хэш: 1a74436f2fbf6776e092eab10b49866b76bc84bc
Размер: 4.6 ГБ (4 935 902 761 байт)
   Стать Автором раздачи
   
Цитата
  • Похожие торренты
    Ответы
    Просмотры
    Последнее сообщение

Вернуться в Поп-музыка (Hi-Res stereo)

Кто сейчас на конференции

Сейчас эту тему просматривают: нет зарегистрированных пользователей и гости: 1