[TR24][OF] Michael Jackson - Thriller 25 Super Deluxe Edition - 2018 (Pop)

 Статистика раздачи 
Размер: 1.76 ГБ   |  Зарегистрирован: 15 авг 2018, 12:05   |   .torrent скачан: 0 раз
Сидеров: 0  [ 0 байт/сек ]     Личеров: 0  [ 0 байт/сек ]  
  
Аватара пользователя
Главный редактор
Главный редактор
 
Раздал: 90.01 ТБ
Скачал: 3.78 ТБ
Ратио: 24.248
Сообщения: 274788
Стаж: 9 лет 1 месяц 19 дней
Откуда: Санкт-Петербург

Michael Jackson - Thriller 25 Super Deluxe Edition
Формат записи/Источник записи: [TR24][OF]
Наличие водяных знаков: Нет
Год издания/переиздания диска: 2018
Жанр: Pop
Издатель (лейбл): Epic/Legacy
Продолжительность: 01:56:32
Наличие сканов в содержимом раздачи: Только обложка альбома
Источник: WRZmusic
Магазин: qobuz.com
Треклист:
01. Wanna Be Startin' Somethin' (6:03)
02. Baby Be Mine (4:20)
03. The Girl Is Mine (3:42)
04. Thriller (5:58)
05. Beat It (Single Version) (4:18)
06. Billie Jean (4:54)
07. Human Nature (4:06)
08. P.Y.T. (Pretty Young Thing) (3:59)
09. The Lady In My Life (4:58)
10. Vincent Price Excerpt From “Thriller” Voice-Over Session (Thriller 25th Anniversary Voice-Over Session) (0:24)
11. The Girl Is Mine (2008 with will.i.am) (Thriller 25th Anniversary Remix) (3:10)
12. P.Y.T. (Pretty Young Thing) 2008 (with will.i.am) (Thriller 25th Anniversary Remix) (4:21)
13. Wanna Be Startin' Somethin' 2008 (with Akon) (Thriller 25th Anniversary Remix) (4:14)
14. Beat It 2008 (feat. Fergie) (Thriller 25th Anniversary Remix) (4:11)
15. Billie Jean 2008 (Kanye West Mix) (Thriller 25th Anniversary Remix) (4:36)
16. For All Time (4:04)
17. Billie Jean (Long Version) (6:23)
18. Voice-Over Intro Quincy Jones Interview #1 / Quincy Jones Interview #1 (2:18)
19. Someone in the Dark (4:48)
20. Voice-Over Intro Quincy Jones Interview #2 / Quincy Jones Interview #2 / Voice-Over Intro Billie Jean (Demo) (2:04)
21. Billie Jean (Home Demo from 1981) (2:20)
22. Quincy Jones Interview #3 (3:10)
23. Voice-Over Intro Rod Temperton Interview #1 / Rod Temperton Interview #1 (4:03)
24. Quincy Jones Interview #4 (1:32)
25. Voice-Over Intro / Voice-Over Session from “Thriller” (2:52)
26. Voice-Over Intro Rod Temperton Interview #2 / Rod Temperton Interview #2 (1:56)
27. Quincy Jones Interview #5 (2:02)
28. Carousel (1:49)
29. Voice-Over Intro Quincy Jones Interview #6 / Quincy Jones Interview #6 (1:18)
30. Billie Jean (Underground Mix) (6:40)
31. Thriller (Instrumental) (5:58) 

Контейнер: FLAC (*.flac)
Тип рипа: tracks
Разрядность: 24/44,1; 24/96
Формат: PCM
Количество каналов: 2.0
Код: Выделить всё
foobar2000 1.3.9 / Dynamic Range Meter 1.1.1
log date: 2018-08-15 14:48:09
--------------------------------------------------------------------------------
Analyzed: Michael Jackson / Thriller 25 Super Deluxe Edition (1-14)
          Quincy Jones / Thriller 25 Super Deluxe Edition (15-20)
          Rod Temperton / Thriller 25 Super Deluxe Edition (21)
          Vincent Price / Thriller 25 Super Deluxe Edition (22)
--------------------------------------------------------------------------------
DR         Peak         RMS     Duration Track
--------------------------------------------------------------------------------
DR8       -0.01 dB    -8.97 dB      3:10 11-The Girl Is Mine (2008 with will.i.am) (Thriller 25th Anniversary Remix)
DR8       -0.01 dB    -9.68 dB      4:21 12-P.Y.T. (Pretty Young Thing) 2008 (with will.i.am) (Thriller 25th Anniversary Remix)
DR5       -0.01 dB    -6.79 dB      4:14 13-Wanna Be Startin' Somethin' 2008 (with Akon) (Thriller 25th Anniversary Remix)
DR7       -0.01 dB    -7.66 dB      4:11 14-Beat It 2008 (feat. Fergie) (Thriller 25th Anniversary Remix)
DR5       -0.01 dB    -6.17 dB      4:36 15-Billie Jean 2008 (Kanye West Mix) (Thriller 25th Anniversary Remix)
DR9       -0.01 dB   -11.16 dB      4:04 16-For All Time
DR6       -0.01 dB    -7.56 dB      6:23 17-Billie Jean (Long Version)
DR9       -0.12 dB   -12.52 dB      4:48 19-Someone in the Dark
DR8       -0.10 dB   -11.03 dB      2:20 21-Billie Jean (Home Demo from 1981)
DR13      -1.88 dB   -20.25 dB      2:52 25-Voice-Over Intro / Voice-Over Session from “Thriller”
DR14      -1.07 dB   -17.85 dB      1:56 26-Voice-Over Intro Rod Temperton Interview #2 / Rod Temperton Interview #2
DR9       -0.10 dB   -10.95 dB      1:49 28-Carousel
DR8       -0.01 dB    -8.87 dB      6:40 30-Billie Jean (Underground Mix)
DR7       -0.01 dB    -8.98 dB      5:58 31-Thriller (Instrumental)
DR11      -0.10 dB   -13.66 dB      2:18 18-Voice-Over Intro Quincy Jones Interview #1 / Quincy Jones Interview #1
DR10      -0.12 dB   -13.53 dB      2:04 20-Voice-Over Intro Quincy Jones Interview #2 / Quincy Jones Interview #2 / Voice-Over Intro Billie Jean (Demo)
DR12      -0.11 dB   -15.16 dB      3:10 22-Quincy Jones Interview #3
DR11      -0.13 dB   -14.12 dB      1:32 24-Quincy Jones Interview #4
DR12      -0.13 dB   -15.27 dB      2:02 27-Quincy Jones Interview #5
DR10      -0.13 dB   -13.05 dB      1:18 29-Voice-Over Intro Quincy Jones Interview #6 / Quincy Jones Interview #6
DR13      -0.55 dB   -15.88 dB      4:03 23-Voice-Over Intro Rod Temperton Interview #1 / Rod Temperton Interview #1
DR14      -3.31 dB   -21.57 dB      0:24 10-Vincent Price Excerpt From “Thriller” Voice-Over Session (Thriller 25th Anniversary Voice-Over Session)
--------------------------------------------------------------------------------
Number of tracks:  22
Official DR value: DR9
Samplerate:        44100 Hz
Channels:          2
Bits per sample:   24
Bitrate:           1347 kbps
Codec:             FLAC
================================================================================
--------------------------------------------------------------------------------
Analyzed: Michael Jackson / Thriller 25 Super Deluxe Edition
--------------------------------------------------------------------------------
DR         Peak         RMS     Duration Track
--------------------------------------------------------------------------------
DR7       -1.11 dB    -8.90 dB      6:03 01-Wanna Be Startin' Somethin'
DR7       -1.11 dB   -10.25 dB      4:20 02-Baby Be Mine
DR8       -1.11 dB   -11.28 dB      3:42 03-The Girl Is Mine
DR7       -1.11 dB    -9.72 dB      5:58 04-Thriller
DR6       -1.11 dB    -8.66 dB      4:18 05-Beat It (Single Version)
DR7       -1.41 dB    -9.32 dB      4:54 06-Billie Jean
DR7       -1.11 dB    -9.41 dB      4:06 07-Human Nature
DR7       -1.11 dB    -9.81 dB      3:59 08-P.Y.T. (Pretty Young Thing)
DR7       -1.11 dB   -10.96 dB      4:58 09-The Lady In My Life
--------------------------------------------------------------------------------
Number of tracks:  9
Official DR value: DR7
Samplerate:        96000 Hz
Channels:          2
Bits per sample:   24
Bitrate:           3051 kbps
Codec:             FLAC
================================================================================
 
Не забывайте говорить Спасибо. Не уходите с раздачи!   
Торрент: Зарегистрирован [15 авг 2018, 12:05]
Статус:
Проверен
 
.torrent скачан: 0 раз
Хэш: 4e24802fc4623fad584c89ea7b552211797a87e6
Размер: 1.76 ГБ (1 891 979 872 байт)
   Стать Автором раздачи
   
Цитата

Вернуться в Поп-музыка (Hi-Res stereo)

Кто сейчас на конференции

Сейчас эту тему просматривают: нет зарегистрированных пользователей и гости: 1