[TR24][OF] Kawehi (I am Kawehi) - Kawehi Covers - 2019 (Indie Pop / Cover)

 Статистика раздачи 
Размер: 550.54 МБ   |  Зарегистрирован: 08 мар 2019, 16:13   |   .torrent скачан: 0 раз
Сидеров: 0  [ 0 байт/сек ]     Личеров: 0  [ 0 байт/сек ]  
  
Аватара пользователя
Главный редактор
Главный редактор
 
Раздал: 90.01 ТБ
Скачал: 3.78 ТБ
Ратио: 24.248
Сообщения: 274856
Стаж: 9 лет 1 месяц 20 дней
Откуда: Санкт-Петербург

Kawehi (I am Kawehi) / Kawehi Covers
Формат записи/Источник записи: [TR24][OF]
Наличие водяных знаков: Нет
Год издания/переиздания диска: 2019
Жанр: Indie Pop / Cover
Издатель (лейбл): Kawehi
Продолжительность: 1:32:49
Источник (релизер): bandcamp
Наличие сканов в содержимом раздачи: Только обложка альбома
Треклист:
01. The Way You Make Me Feel [4:20]
02. Closer [5:25]
03. Heart-shaped Box [5:10]
04. Bloodstream [5:23]
05. Creep [4:38]
06. Time Is Running Out [5:59]
07. I'm Only Happy When It Rains [3:24]
08. Chandelier [5:09]
09. Joga/Army of Me [5:03]
10. High and Dry [4:31]
11. She Wolf/Mario Bros/Booty Mashup [4:20]
12. Fake Plastic Trees [4:41]
13. Ramble On [5:02]
14. Afternoon Delight/Dancing In The Moonlight/Just Dance Mashup [4:43]
15. Don't Worry Baby [3:36]
16. Lights [3:40]
17. Payphone [4:16]
18. Mad World/Radioactive [4:07]
19. Sail [4:18]
20. Don't Dream It's Over [5:03]
Контейнер: FLAC (*.flac)
Тип рипа: tracks
Разрядность: 16/44,1; 24/44,1
Формат: PCM
Количество каналов: 2.0
Код: Выделить всё
foobar2000 1.4.1 / Dynamic Range Meter 1.1.1
log date: 2019-03-08 19:34:18
--------------------------------------------------------------------------------
Analyzed: Kawehi / Kawehi Covers
--------------------------------------------------------------------------------
DR         Peak         RMS     Duration Track
--------------------------------------------------------------------------------
DR7        0.00 dB    -8.32 dB      4:20 01-The Way You Make Me Feel
DR8        0.00 dB    -9.63 dB      5:25 02-Closer
DR7        0.00 dB    -8.89 dB      5:10 03-Heart-shaped Box
DR13      -1.71 dB   -17.42 dB      5:23 04-Bloodstream
DR7        0.00 dB   -10.41 dB      4:38 05-Creep
DR7        0.00 dB   -10.53 dB      5:59 06-Time Is Running Out
DR9        0.00 dB   -10.78 dB      3:24 07-I'm Only Happy When It Rains
--------------------------------------------------------------------------------
Number of tracks:  7
Official DR value: DR8
Samplerate:        44100 Hz
Channels:          2
Bits per sample:   16
Bitrate:           877 kbps
Codec:             FLAC
================================================================================
--------------------------------------------------------------------------------
Statistics for: 08-Chandelier
Number of samples: 13632983
Duration: 5:09
--------------------------------------------------------------------------------
                 Left              Right
Peak Value:     -0.61 dB   ---     -0.61 dB
Avg RMS:       -12.71 dB   ---    -12.77 dB
DR channel:      9.85 dB   ---     10.00 dB
--------------------------------------------------------------------------------
Official DR Value: DR10
Samplerate:        44100 Hz
Channels:          2
Bits per sample:   24
Bitrate:           1544 kbps
Codec:             FLAC
================================================================================
--------------------------------------------------------------------------------
Analyzed: Kawehi / Kawehi Covers
--------------------------------------------------------------------------------
DR         Peak         RMS     Duration Track
--------------------------------------------------------------------------------
DR9        0.00 dB   -11.45 dB      5:03 09-Joga/Army of Me
DR7       -0.59 dB   -11.62 dB      4:31 10-High and Dry
DR8        0.00 dB    -9.47 dB      4:20 11-She Wolf/Mario Bros/Booty Mashup
DR7        0.00 dB    -9.93 dB      4:41 12-Fake Plastic Trees
DR9        0.00 dB   -11.36 dB      5:02 13-Ramble On
DR8       -2.93 dB   -13.24 dB      4:43 14-Afternoon Delight/Dancing In The Moonlight/Just Dance Mashup
DR9        0.00 dB   -11.05 dB      3:36 15-Don't Worry Baby
DR13       0.00 dB   -14.25 dB      3:40 16-Lights
DR9       -0.35 dB   -12.86 dB      4:07 18-Mad World/Radioactive
DR8       -0.24 dB   -10.19 dB      4:18 19-Sail
DR9        0.00 dB   -11.16 dB      5:03 20-Don't Dream It's Over
--------------------------------------------------------------------------------
Number of tracks:  11
Official DR value: DR9
Samplerate:        44100 Hz
Channels:          2
Bits per sample:   16
Bitrate:           720 kbps
Codec:             FLAC
================================================================================
--------------------------------------------------------------------------------
Statistics for: 17-Payphone
Number of samples: 12292807
Duration: 4:16
--------------------------------------------------------------------------------
                 Left              Right
Peak Value:      0.00 dB   ---      0.00 dB
Avg RMS:       -10.50 dB   ---    -10.54 dB
DR channel:      7.88 dB   ---      8.01 dB
--------------------------------------------------------------------------------
Official DR Value: DR8
Samplerate:        48000 Hz
Channels:          2
Bits per sample:   16
Bitrate:           703 kbps
Codec:             FLAC
================================================================================
Внимание! Для получения полной дискографии необходимо скачать также данную раздачу. Обе попадают в одну и ту же папку.
Не забывайте говорить Спасибо. Не уходите с раздачи!   
Торрент: Зарегистрирован [08 мар 2019, 16:13]
Статус:
Проверен
 
.torrent скачан: 0 раз
Хэш: 52a5e91fcf814d6edf4b0dca49243d44b1314acd
Размер: 550.54 МБ (577 281 286 байт)
   Стать Автором раздачи
   
Цитата

Вернуться в Поп-музыка (Hi-Res stereo)

Кто сейчас на конференции

Сейчас эту тему просматривают: нет зарегистрированных пользователей и гости: 1