[TR24][OF] Ute Lemper - The 9 Secrets - 2015 (Pop, Chanson)

 Статистика раздачи 
Размер: 1.19 ГБ   |  Зарегистрирован: 22 окт 2017, 20:13   |   .torrent скачан: 0 раз
Сидеров: 0  [ 0 байт/сек ]     Личеров: 0  [ 0 байт/сек ]  
  
Аватара пользователя
Главный редактор
Главный редактор
 
Раздал: 90.01 ТБ
Скачал: 3.78 ТБ
Ратио: 24.248
Сообщения: 274106
Стаж: 9 лет 1 месяц 17 дней
Откуда: Санкт-Петербург
СообщениеДобавлено: 22 окт 2017, 20:13


Ute Lemper - The 9 Secrets
Формат записи/Источник записи: [TR24][OF]
Наличие водяных знаков: Нет
Год издания/переиздания диска: 2015
Жанр: Pop
Издатель (лейбл): Content Records
Продолжительность: 59:54
Наличие сканов в содержимом раздачи: Буклет PDF
Треклист:
01. Beauty (4:37)
02. Love (5:39)
03. Movimento (7:07)
04. The Story Of Accra (3:09)
05. Solitude (5:52)
06. Sex (6:27)
07. Success (4:41)
08. The Word And The Virtue (6:55)
09. Fire (5:17)
10. Change (7:39)
11. Paulo's Story (1:29)
12. A Thought (1:02)
Ute Lemper - Vocals, Composer
Idriss Agnel - Clay Pot, Doudouk, Zarb
Henri Angel - Orpharion
John Benthal - Guitar, Oud
Sean Carney - Violin
Clifford Carter - Piano, Wurlitzer
Paulo Coelho - Composer, Spoken Word
Dave Egger - Cello
Bob Funk - Trombone
Gil Goldstein - Accordion, Flute, String Arrangements, Strings
Rachael Golub - Violin
Richard Golub - Cello
Joyce Hammann - Violin
Aaron Heick - Sax (Alto), Sax (Soprano)
Henry Hey - Piano
Mavrothi Kontanis - Oud
Elizabeth Mann - Flute
Lois Martin - Viola
Steve Millhouse - Bass
Kathleen Nester - Flute (Bass)
Susan Palma-Nidel - Flute (Alto)
Tim Quimette - Flugelhorn, Trumpet
Louise Schulman - Viola
Laura Seaton - Violin
Jamshied Sharifi - Percussion, Sound Effects, String Arrangements, Wind Synthesizer
Dafer Tawil - Kanun, Ney, Percussion, String Instrument, Violin
Todd Turkisher - Drums, Percussion
Victor Villena - Bandoneon
[/spoiler]
Singer and composer Ute Lemper read best-selling author Paulo Coelho's Manuscript Found in Accra while on tour and was deeply moved by its contemplative questions about the endlessly inquisitive, unfolding mysteries in everyday life -- carnal, emotional, and spiritual. She was inspired to write The Nine Secrets, a song cycle, from Coelho's words, and approached him, finding him a longtime fan of her own work. She enlisted him as an enthusiastic collaborator. Lemper adds colorful resonance and immediacy to these texts, just as she did with 2014's Forever: The Love Poems of Pablo Neruda. She composed 12 melodies and pared Coelho's most essential phrases down to lyrics. Self-produced, she engages a wide variety of genres to get the songs across. Coelho's books have been translated into numerous languages, and Lemper honored that fact. Most of these tracks marry English, Portuguese, French, Spanish, and more, often within the same tune. Her New York band is appended by a cast of Middle Eastern master musicians including Dafer Tawil on quanun, ney, and percussion, and oudist Mavrothi Kontanis. Arranger Gil Goldstein also plays accordion. The celebrated Jamshied Sharifi handled the Middle Eastern string charts. The titles address specific topics in the text. "Beauty" offers lithe strings and saxophone fills, brushed snare, and hand percussion, all led by an elegant yet hooky piano straight out of prime Burt Bacharach. The tune's bridge combines American pop classicism with bossa nova. "Movimento" uses breezy MPB, contemporary jazz, and tango. Accordion and soprano saxophone trade solos and fills as Lemper's voice offers a sun-drenched reverie. Oud, ney, quanun, and bells introduce "The Story of Accra." Lemper delivers a spoken word intro before singing a modal blues that entwines with classical maqam. Coelho makes the first of two reading appearances, adding richness, mystery, and weight to the skeletal melody. Maqam-meets-nouveau chanson and theater pop in "Sex." The layering of strings, accordion, and orpharion (that adds just a touch of Moorish Renaissance flavor) makes this a set standout. "Success," with limber, funky electric piano, a woody upright bass, accordion, and Arabic hand percussion is a sensual brew of contemporary jazz, classic crossover, chamber music, and Latin-tinged cabaret. Here, Lemper is at her throaty best. "Fire" is the most theatrical track. Chanson (à la Jacques Brel), American theatrical pop, and Hanns Eisler-esque cabaret (complete with muted trombone vamps) frame Lemper's voice; she alternately croons and swaggers. Coelho returns in the brief "Paolo's Story," just before Lemper closes with another short spoken interlude. The Nine Secrets is as gorgeous as it is ambitious and exotic. On the page, Coelho's seemingly simple themes are deceptive. Lemper renders them with timbral and textural imagination, and canny cleverness. Musically rich, elegantly performed, and brilliantly arranged, this date is a high-water mark in an already distinguished catalog. Lemper's fans will be delighted. Perhaps some of the author's 200 million readers will adventure to investigate The Nine Secrets as well.

Контейнер: FLAC (*.flac)
Тип рипа: tracks
Разрядность: 24/88,2
Формат: PCM
Количество каналов: 2.0
Код: Выделить всё
foobar2000 1.3.9 / Dynamic Range Meter 1.1.1
log date: 2017-10-22 22:58:57
--------------------------------------------------------------------------------
Analyzed: Ute Lemper / The 9 Secrets
--------------------------------------------------------------------------------
DR         Peak         RMS     Duration Track
--------------------------------------------------------------------------------
DR7       -0.78 dB    -9.65 dB      4:37 01-Beauty
DR7       -0.78 dB   -10.19 dB      5:39 02-Love
DR8       -0.78 dB   -10.24 dB      7:07 03-Movimento
DR13      -0.78 dB   -16.32 dB      3:09 04-The Story Of Accra
DR8       -0.78 dB   -11.24 dB      5:52 05-Solitude
DR9       -0.78 dB   -11.91 dB      6:27 06-Sex
DR7       -0.78 dB    -9.83 dB      4:41 07-Success
DR10      -0.78 dB   -12.61 dB      6:55 08-The Word And The Virtue
DR9       -0.78 dB   -11.17 dB      5:17 09-Fire
DR6       -0.78 dB    -9.23 dB      7:39 10-Change
DR11      -0.78 dB   -14.52 dB      1:29 11-Paulo's Story
DR13      -0.78 dB   -18.63 dB      1:02 12-A Thought
--------------------------------------------------------------------------------
Number of tracks:  12
Official DR value: DR9
Samplerate:        88200 Hz
Channels:          2
Bits per sample:   24
Bitrate:           2681 kbps
Codec:             FLAC
================================================================================
Источник: qobuz.com[/spoiler]
Не забывайте говорить Спасибо. Не уходите с раздачи!   
Торрент: Зарегистрирован [22 окт 2017, 20:13]
Статус:
Проверен
 
.torrent скачан: 0 раз
Хэш: 6830e08c34c13ead8fc7be27dd1e813b3db13b70
Размер: 1.19 ГБ (1 276 972 850 байт)
   Стать Автором раздачи
   
Цитата
  • Похожие торренты
    Ответы
    Просмотры
    Последнее сообщение

Вернуться в Поп-музыка (Hi-Res stereo)

Кто сейчас на конференции

Сейчас эту тему просматривают: нет зарегистрированных пользователей и гости: 1