[TR24][OF] Diana Ross - Diana - 1980/2016 (Pop, R&B)

 Статистика раздачи 
Размер: 1.44 ГБ   |  Зарегистрирован: 28 янв 2017, 07:49   |   .torrent скачан: 0 раз
Сидеров: 0  [ 0 байт/сек ]     Личеров: 0  [ 0 байт/сек ]  
  
Аватара пользователя
Главный редактор
Главный редактор
 
Раздал: 90.01 ТБ
Скачал: 3.78 ТБ
Ратио: 24.248
Сообщения: 274898
Стаж: 9 лет 1 месяц 21 день
Откуда: Санкт-Петербург
СообщениеДобавлено: 28 янв 2017, 07:49


Diana Ross / Diana
Формат записи/Источник записи: [TR24][OF]
Наличие водяных знаков: Нет
Год издания/переиздания диска: 1980/2016
Жанр: Pop, R&B
Издатель(лейбл): Universal Motown
Продолжительность: 34:20
Наличие сканов в содержимом раздачи: Только обложка альбома
Треклист:
1. Upside Down
2. Tenderness
3. Friend To Friend
4. I'm Coming Out
5. Have Fun (Again)
6. My Old Piano
7. Now That You're Gone
8. Give Up
Контейнер: FLAC (*.flac)
Тип рипа: tracks
Разрядность: 24/192
Формат: PCM
Количество каналов: 2.0
Код: Выделить всё
foobar2000 1.3.12 / Dynamic Range Meter 1.1.1
log date: 2016-11-22 08:22:16
--------------------------------------------------------------------------------
Analyzed: Diana Ross / Diana
--------------------------------------------------------------------------------
DR         Peak         RMS     Duration Track
--------------------------------------------------------------------------------
DR11       0.00 dB   -11.86 dB      4:06 01-Upside Down
DR12       0.00 dB   -12.82 dB      3:52 02-Tenderness
DR14      -1.09 dB   -17.54 dB      3:20 03-Friend To Friend
DR11       0.00 dB   -12.23 dB      5:24 04-I'm Coming Out
DR12       0.00 dB   -13.20 dB      5:57 05-Have Fun (Again)
DR11       0.00 dB   -11.74 dB      3:55 06-My Old Piano
DR12       0.00 dB   -13.38 dB      4:00 07-Now That You're Gone
DR12       0.00 dB   -13.10 dB      3:46 08-Give Up
--------------------------------------------------------------------------------
Number of tracks:  8
Official DR value: DR12
Samplerate:        192000 Hz
Channels:          2
Bits per sample:   24
Bitrate:           6080 kbps
Codec:             FLAC
================================================================================


Источник (релизер):
Не забывайте говорить Спасибо. Не уходите с раздачи!   
Торрент: Зарегистрирован [28 янв 2017, 07:49]
Статус:
Проверен
 
.torrent скачан: 0 раз
Хэш: f5ab4a2232b3d63ce977fcefa5929a2290ccd35e
Размер: 1.44 ГБ (1 543 298 003 байт)
   Стать Автором раздачи
   
Цитата
  • Похожие торренты
    Ответы
    Просмотры
    Последнее сообщение

Вернуться в Поп-музыка (Hi-Res stereo)

Кто сейчас на конференции

Сейчас эту тему просматривают: нет зарегистрированных пользователей и гости: 1