[TR24][OF] Ace of Base - Cruel Summer (Remastered) - 1998/2015 (Pop, Eurodance)

 Статистика раздачи 
Размер: 610.99 МБ   |  Зарегистрирован: 04 фев 2015, 09:30   |   .torrent скачан: 0 раз
Сидеров: 0  [ 0 байт/сек ]     Личеров: 0  [ 0 байт/сек ]  
  
Аватара пользователя
Главный редактор
Главный редактор
 
Раздал: 90.01 ТБ
Скачал: 3.78 ТБ
Ратио: 24.248
Сообщения: 274898
Стаж: 9 лет 1 месяц 21 день
Откуда: Санкт-Петербург

Ace of Base
Cruel Summer

Год издания/переиздания диска: 1998/2015
Жанр: Pop, Eurodance
Издатель (лейбл): Playground Music
Продолжительность: 00:48:36
Наличие сканов: Sleeve


01. Cruel Summer (3:35)
02. Donnie (Ole Evenrude Version) (3:48)
03. Whenever You're Near Me (US Album Version) (3:31)
04. Everytime It Rains (4:52)
05. Adventures in Paradise (3:32)
06. Don't Go Away (3:40)
07. Cecilia (3:55)
08. He Decides (Charles Fisher Mix) (3:49)
09. Always Have, Always Will (Edit) (3:50)
10. Tokyo Girl (3:36)
11. Travel to Romantis (Love to Infinity Mix) (3:38)
12. Cruel Summer (Blazin' Rhythm Remix) (3:35)
13. Kings and Queens (Bonus Track) (3:15)


Контейнер: FLAC (*.flac)
Тип рипа: tracks
Разрядность: 24bit / 44.1kHz
Количество каналов: 2.0

Код: Выделить всё
foobar2000 1.2.2 / Dynamic Range Meter 1.1.1
log date: 2015-02-04 02:11:38
--------------------------------------------------------------------------------
Analyzed: Ace Of Base / Cruel Summer
--------------------------------------------------------------------------------
DR         Peak         RMS     Duration Track
--------------------------------------------------------------------------------
DR6       -0.66 dB    -7.67 dB      3:35 ?-Cruel Summer
DR5       -0.39 dB    -7.06 dB      3:48 ?-Donnie (Ole Evenrude Version)
DR6       -0.36 dB    -8.49 dB      3:31 ?-Whenever You're Near Me (US Album Version)
DR7       -0.54 dB    -9.25 dB      4:52 ?-Everytime It Rains
DR6       -0.78 dB    -8.76 dB      3:32 ?-Adventures in Paradise
DR5       -0.77 dB    -7.76 dB      3:40 ?-Don't Go Away
DR6       -0.92 dB    -7.94 dB      3:55 ?-Cecilia
DR6       -0.54 dB    -7.70 dB      3:49 ?-He Decides (Charles Fisher Mix)
DR6       -0.39 dB    -7.64 dB      3:50 ?-Always Have, Always Will (Edit)
DR6       -0.49 dB    -7.36 dB      3:36 ?-Tokyo Girl
DR6       -0.36 dB    -7.56 dB      3:38 ?-Travel to Romantis (Love to Infinity Mix)
DR4       -0.32 dB    -6.44 dB      3:35 ?-Cruel Summer (Blazin' Rhythm Remix)
DR7       -0.44 dB    -8.67 dB      3:15 ?-Kings and Queens (Bonus Track)
--------------------------------------------------------------------------------
Number of tracks:  13
Official DR value: DR6
Samplerate:        44100 Hz
Channels:          2
Bits per sample:   24
Bitrate:           1670 kbps
Codec:             FLAC
================================================================================
При скачивании, если необходимо, переименуйте папку, в которой будет находиться альбом
Большая просьба к скачавшим поддерживать раздачу! Помогайте другим, ведь вам тоже может понадобиться помощь!
Не забываем говорить "Спасибо"!
Комментарии приветствуются!
Ace of Base Hi-Res[/spoiler]
Не забывайте говорить Спасибо. Не уходите с раздачи!   
Торрент: Зарегистрирован [04 фев 2015, 09:30]
Статус:
Проверен
 
.torrent скачан: 0 раз
Хэш: ea29ec677c95e7dac2ddc7e19a0000e4557f024b
Размер: 610.99 МБ (640 664 772 байт)
   Стать Автором раздачи
   
Цитата
  • Похожие торренты
    Ответы
    Просмотры
    Последнее сообщение

Вернуться в Поп-музыка (Hi-Res stereo)

Кто сейчас на конференции

Сейчас эту тему просматривают: нет зарегистрированных пользователей и гости: 1