[SACD-R][OF] Pharos - Dynamic Voice (Only Love) - 2007 (Pop, Neo-Classical, Vocal)

 Статистика раздачи 
Размер: 881.77 МБ   |  Зарегистрирован: 15 авг 2019, 14:30   |   .torrent скачан: 0 раз
Сидеров: 0  [ 0 байт/сек ]     Личеров: 0  [ 0 байт/сек ]  
  
Аватара пользователя
Главный редактор
Главный редактор
 
Раздал: 90.01 ТБ
Скачал: 3.78 ТБ
Ратио: 24.248
Сообщения: 274898
Стаж: 9 лет 1 месяц 21 день
Откуда: Санкт-Петербург

Pharos / Dynamic Voice (Only Love)
Формат записи/Источник записи: [SACD-R][OF]
Наличие водяных знаков: Нет
Год издания/переиздания диска: 2007
Жанр: Pop, Neo-Classical, Vocal
Издатель (лейбл): Top Music International
Продолжительность: 00:52:36
Наличие сканов в содержимом раздачи: Да (сканы)
Треклист:
01. Alejate
02. Medley: Besame Mucho / Contigo Aprend / Amigos Para Siempre
03. Yesterday When I Was Young
04. Feliz
05. Only Love
06. Sigue Sin Mi
07. Hold Me Till The Morning Comes
08. Quando Sento Que Mi Ami (When You Tell Me That You Love Me)
09. Come To Me
10. Hero
11. Caruso
12. Turiddu
Контейнер: ISO (*.iso)
Тип рипа: image
Разрядность: 64(2,8 MHz/1 Bit)
Формат: DST64
Количество каналов: 2.0
Код: Выделить всё
foobar2000 1.4.6 / Замер динамического диапазона (DR) 1.1.1
Дата отчёта:  2019-08-15 20:06:11
--------------------------------------------------------------------------------
Анализ:   Pharos / Dynamic Voice
--------------------------------------------------------------------------------
DR         Пики         RMS           Продолжительность трека
--------------------------------------------------------------------------------
DR10      -5.52 дБ   -17.63 дБ      5:03 01-Alejate
DR9       -4.93 дБ   -16.93 дБ      4:55 02-Medley: Besame Mucho / Contigo Aprendi / Amigos Para Siempre
DR8       -5.58 дБ   -17.18 дБ      4:45 03-Yesterday When I Was Young
DR9       -5.86 дБ   -18.12 дБ      3:51 04-Feliz
DR10      -5.91 дБ   -19.56 дБ      4:31 05-Only Love
DR10      -5.83 дБ   -19.30 дБ      4:08 06-Sigue Sin Mi
DR7       -7.62 дБ   -17.24 дБ      4:16 07-Hold Me Till The Morning Comes
DR8       -6.08 дБ   -17.46 дБ      4:21 08-Quando Sento Que Mi Ami (When You Tell Me That You Love Me)
DR11      -5.29 дБ   -19.19 дБ      3:59 09-Come To Me
DR10      -4.85 дБ   -18.04 дБ      4:39 10-Hero
DR9       -5.58 дБ   -19.20 дБ      4:16 11-Caruso
DR9       -5.35 дБ   -17.91 дБ      3:50 12-Turiddu
--------------------------------------------------------------------------------
Количество треков: 12
Реальные значения DR: DR9
Частота:   2822400 Гц / Частота PCM: 88200 Гц
Каналов:   2
Разрядность:   1
Битрейт:   5645 кбит/с
Кодек:   DST64
================================================================================
Источник (релизер): www
https://store.acousticsounds.com/d/39755/Pharos-Dynamic_Voices-Hybrid_Stereo_SACD
https://www.sa-cd.net/showtitle/6284
This recording features 12 tracks by Marc Canto, a 36-year-old tenor who once did a contest on television as Boccelli and also performed on Dutch television in a popular opera program, and William, the Spanish-type 32 year old who was once part of the San Remo song festival in Italy. The duo is joined by the London Session Strings conducted by Roberto Bautista in this medley program.
Не забывайте говорить Спасибо. Не уходите с раздачи!   
Торрент: Зарегистрирован [15 авг 2019, 14:30]
Статус:
Проверен
 
.torrent скачан: 0 раз
Хэш: 6eed08959d486aab8d1c15ffcd1328fd472afbc8
Размер: 881.77 МБ (924 607 951 байт)
   Стать Автором раздачи
   
Цитата

Вернуться в Поп-музыка (Hi-Res stereo)

Кто сейчас на конференции

Сейчас эту тему просматривают: нет зарегистрированных пользователей и гости: 1