[TR24][DSD][OF] Suara - Дискография (12 альбомов + 1 компиляция + 8 синглов) - 2006-2018 (J-Pop)

 Статистика раздачи 
Размер: 48.9 ГБ   |  Зарегистрирован: 03 фев 2016, 15:52   |   .torrent скачан: 0 раз
Сидеров: 5  [ 0 байт/сек ]     Личеров: 1  [ 0 байт/сек ]  
  
Аватара пользователя
Главный редактор
Главный редактор
 
Раздал: 90.01 ТБ
Скачал: 3.78 ТБ
Ратио: 24.248
Сообщения: 274856
Стаж: 9 лет 1 месяц 20 дней
Откуда: Санкт-Петербург

Suara
Дискография (12 альбомов + 1 компиляция + 8 синглов)


Цитата:
Цитата:
Suara (настоящее имя - Акико Тацуми, 明子巽) — японская поп-певица, родилась 3 августа 1979 года в Осаке. Известность получила благодаря записи песен для различных аниме и видео-игр, таких как To Heart, Blue Drop, White Album, Utawarerumono, Tears to Tiara, KimiKiss Pure Rouge, Asatte no Houkou. Выпускает свои работы под двумя лейблами - Lantis и King Records. Её псевдоним «Suara» в переводе с индонезийского означает «Голос».



Формат записи/Источник записи: [TR24][OF] - 6, [DSD][OF] - 14
Наличие водяных знаков: Нет
Год издания: 2006-2018
Жанр: J-Pop
Издатель(лейбл): F.I.X.RECORDS
Общая продолжительность: 20:37:03
Наличие сканов в содержимом раздачи: Нет
Источник (релизер): Jpopsuki, U2, Baidu, Nyaa, TSDM

Albums
Треклист:
01. Suiren -Amaneku Hana-
02. Tooi Machi
03. Tomoshibi (acoustic version)
04. Seiza
05. Juugatsu Ame
06. pray
07. Hajimari no Yakusoku
08. Amane Uta
Продолжительность: 00:47:59
Контейнер: DSF (*.dsf)
Тип рипа: tracks
Разрядность: 64(2,8 MHz/1 Bit)
Формат: DSD
Количество каналов: 2.0
Источник (релизер): OTOTOY
Код: Выделить всё
foobar2000 1.3.9 / Dynamic Range Meter 1.1.1
log date: 2016-02-05 09:21:12
--------------------------------------------------------------------------------
Analyzed: Suara / amaneuta
--------------------------------------------------------------------------------
DR         Peak         RMS     Duration Track
--------------------------------------------------------------------------------
DR11      -3.79 dB   -17.14 dB      4:37 01-suiren -amaneku hana-
DR10      -3.62 dB   -15.02 dB      5:21 02-tooi machi
DR11      -4.82 dB   -17.58 dB      4:26 03-tomoshibi (acoustic version)
DR11      -3.66 dB   -16.67 dB      6:23 04-seiza
DR10      -3.64 dB   -16.84 dB      4:21 05-juugatsu ame
DR11      -3.40 dB   -16.65 dB      4:41 06-pray
DR11      -3.99 dB   -17.69 dB      4:56 07-hajimari no yakusoku
DR12      -3.96 dB   -20.38 dB     13:14 08-amaneuta
--------------------------------------------------------------------------------
Number of tracks:  8
Official DR value: DR11
Samplerate:        2822400 Hz / PCM Samplerate: 44100 Hz
Channels:          2
Bits per sample:   24
Bitrate:           5645 kbps
Codec:             DSD64
================================================================================
#77Треклист:
01. Kimi Dake no Tabiji
02. Towa ni"
03. Aoiro no Sora
04. He is here ~Watashi no Kamisama"
05. Kimi no Kawari
06. Musouka
07. brand new days
08. Toki no Kawa
09. lesson
10. Anata no Egao
11. Tabidatsu Hito e
12. Kimi ga Tame
13. MOON PHASE (SACD bonus track)
Продолжительность: 01:06:00
Контейнер: DSF (*.dsf)
Тип рипа: tracks
Разрядность: 64(2,8 MHz/1 Bit)
Формат: DSD
Количество каналов: 2.0
Источник (релизер): OTOTOY
Код: Выделить всё
foobar2000 1.3.9 / Dynamic Range Meter 1.1.1
log date: 2016-02-03 17:00:55
--------------------------------------------------------------------------------
Analyzed: Suara / yumeji
--------------------------------------------------------------------------------
DR         Peak         RMS     Duration Track
--------------------------------------------------------------------------------
DR13      -4.36 dB   -19.29 dB      3:58 01-kimidakenotabiji
DR12      -7.10 dB   -22.47 dB      5:25 02-eikyuni
DR13      -5.31 dB   -20.97 dB      4:52 03-aoironosora
DR13      -5.78 dB   -21.55 dB      5:13 04-He is here
DR14      -5.23 dB   -22.20 dB      6:08 05-kiminokawari
DR12      -5.14 dB   -18.39 dB      4:08 06-musoka
DR13      -5.40 dB   -21.42 dB      4:18 07-brand new days
DR13      -4.77 dB   -23.35 dB      5:31 08-tokinokawa
DR13      -5.24 dB   -21.74 dB      4:49 09-lesson
DR13      -6.95 dB   -22.69 dB      5:14 10-anatanoegao
DR13      -6.90 dB   -22.57 dB      4:19 11-tabidatsuhitoe
DR12      -4.03 dB   -19.75 dB      7:06 12-kimigatame
DR12      -4.67 dB   -20.65 dB      4:58 13-MOON PHASE
--------------------------------------------------------------------------------
Number of tracks:  13
Official DR value: DR13
Samplerate:        2822400 Hz / PCM Samplerate: 44100 Hz
Channels:          2
Bits per sample:   24
Bitrate:           5645 kbps
Codec:             DSD64
================================================================================
#77Треклист:
1. SADAME / mameda susumu
2. HEART TO HEART / Nakagami kazuhide
3. SOREZORE NO MIRAI HE / shimokawa naoya
4. MUSOKA / Suara
5. TOWA NI / matsuoka jun
6. POWDER SNOW / Suara
7. ETERNAL LOVE / ishikawa shin
8. MAKKI NO KOTOBA-SAIGO NO CHIKAI-SEIJAKU / shimokawa naoya
9. KIMI GA TAME / Suara
10. SEIZA / Suara
11. MUSOKA (Multichannel Version) / Suara
Продолжительность: 00:57:32
Контейнер: DFF (*.dff)
Тип рипа: tracks
Разрядность: 64(2,8 MHz/1 Bit)
Формат: DSD
Количество каналов: 2.0+5.1 (11 трек)
Источник (релизер): SACD
16908375[0x1020057]: SACD-Ripper Version 0.36
16908375[0x1020057]: config: 00 00 00 0c 00 00 00 00 ff 41 00 04 00 00 00 00
16908375[0x1020057]: config: 00 00 00 00 00 00 00 00 00 00 00 00 00 00 00 00
16908375[0x1020057]: config: 00 00 00 00 00 00 00 00 00 00 00 00 00 00 00 00
16908375[0x1020057]: config: 00 00 00 00 00 00 00 00 00 00 00 00 00 00 00 00
16908375[0x1020057]: device_info: 75 6e 6e 61 6d 65 5c 10 80 00 00 00 00 53 a0 00
16908375[0x1020057]: device_info: 80 00 00 00 10 13 de 70 80 00 00 00 00 58 fc 00
16908375[0x1020057]: device_info: 00 00 00 00 00 00 00 00 00 00 00 00 7f ff ff ff
16908375[0x1020057]: device_info: 00 00 08 00 00 00 00 01 00 01 01 00 00 00 00 01
16908375[0x1020057]: disc inserted..
16908375[0x1020057]: config: 00 00 00 0c 00 00 00 10 ff 41 01 04 00 00 00 00
16908375[0x1020057]: config: 00 00 00 00 00 00 00 00 00 00 00 00 00 00 00 00
16908375[0x1020057]: config: 00 00 00 00 00 00 00 00 00 00 00 00 00 00 00 00
16908375[0x1020057]: config: 00 00 00 00 00 00 00 00 00 00 00 00 00 00 00 00
16908375[0x1020057]: device_info: 75 6e 6e 61 6d 65 5c 10 80 00 00 00 00 53 a0 00
16908375[0x1020057]: device_info: 80 00 00 00 10 13 de 70 80 00 00 00 00 58 fc 00
16908375[0x1020057]: device_info: 00 00 00 00 00 00 00 00 00 00 00 00 00 12 ba a7
16908375[0x1020057]: device_info: 00 00 08 00 00 00 00 01 00 01 01 00 00 00 00 01
16908375[0x1020057]: Album Title: Pure-AQUAPLUS LEGEND OF ACOUSTICS-
16908375[0x1020057]: Album Artist: Suara etc.
16908375[0x1020057]: Disc Version: 01.20
16908375[0x1020057]: config: 00 00 00 0c 00 00 00 10 ff 41 01 04 00 00 00 00
16908375[0x1020057]: config: 00 00 00 00 00 00 00 00 00 00 00 00 00 00 00 00
16908375[0x1020057]: config: 00 00 00 00 00 00 00 00 00 00 00 00 00 00 00 00
16908375[0x1020057]: config: 00 00 00 00 00 00 00 00 00 00 00 00 00 00 00 00
16908375[0x1020057]: device_info: 75 6e 6e 61 6d 65 5c 10 80 00 00 00 00 53 a0 00
16908375[0x1020057]: device_info: 80 00 00 00 10 13 de 70 80 00 00 00 00 58 fc 00
16908375[0x1020057]: device_info: 00 00 00 00 00 00 00 00 00 00 00 00 00 12 ba a7
16908375[0x1020057]: device_info: 00 00 08 00 00 00 00 01 00 01 01 00 00 00 00 01
16908375[0x1020057]: succeeded. raw_spu number is 0
16908375[0x1020057]: succeeded. entry d0
16908375[0x1020057]: Establishing the interrupt tag on the interrupt PPU thread.
16908375[0x1020057]: ioctl_report_key1[45023901] 0
16908375[0x1020057]: sac_exec_generate_key 0 c9 0
16908375[0x1020057]: ioctl_send_key[2] c9 0
16908375[0x1020057]: ioctl_report_key[2] c8 0
16908375[0x1020057]: sac_exec_validate_key_1[0]
16908375[0x1020057]: sac_exec_generate_key_2[ae] 0
16908375[0x1020057]: ioctl_send_key[3] ae 0
16908375[0x1020057]: ioctl_report_key[3] b0 0
16908375[0x1020057]: sac_exec_validate_key_2[0]
16908375[0x1020057]: ioctl_report_key[4] 30 0
16908375[0x1020057]: sac_exec_validate_key_3[0]
16908375[0x1020057]: ioctl_report_finish [0xff] 0
16908375[0x1020057]: Queuing raw: /dev_usb000/Suara etc. - Pure-AQUAPLUS LEGEND OF ACOUSTICS-.iso, start_lsn: 0, length_lsn: 1227431
Код: Выделить всё
foobar2000 1.3.10 / Dynamic Range Meter 1.1.1
log date: 2016-07-23 10:22:44
--------------------------------------------------------------------------------
Analyzed: Pure-AQUAPLUS LEGEND OF ACOUSTICS- / Pure-AQUAPLUS LEGEND OF ACOUSTICS- (1-6)
          Suara / Pure-AQUAPLUS LEGEND OF ACOUSTICS- (7-10)
--------------------------------------------------------------------------------
DR         Peak         RMS     Duration Track
--------------------------------------------------------------------------------
DR10      -4.13 dB   -17.54 dB      4:40 01-SADAME
DR12      -6.99 dB   -21.11 dB      4:44 02-Heart To Heart
DR11      -4.93 dB   -20.07 dB      4:30 03-sorezore no ashita e
DR10      -4.40 dB   -17.82 dB      5:53 05-towani
DR13      -4.31 dB   -20.57 dB      4:30 07-eternal love
DR12      -4.42 dB   -20.43 dB      4:49 08-makki no kotoba/saigo no chikai/seijaku
DR12      -4.19 dB   -18.64 dB      5:27 04-musouka
DR11      -4.65 dB   -20.09 dB      5:15 06-POWDER SNOW
DR11      -4.24 dB   -18.54 dB      5:36 09-kimigatame
DR11      -3.69 dB   -17.31 dB      6:41 10-seiza
--------------------------------------------------------------------------------
Number of tracks:  10
Official DR value: DR11
Samplerate:        44100 Hz
Channels:          2
Bits per sample:   24
Bitrate:           5645 kbps
Codec:             DSD64
================================================================================
foobar2000 1.3.10 / Dynamic Range Meter 1.1.1
log date: 2016-07-23 10:25:04
--------------------------------------------------------------------------------
Statistics for: 01-musouka
Number of samples: 14457744
Duration: 5:28
--------------------------------------------------------------------------------
              Channel 1          Channel 2          Channel 3          Channel 4          Channel 5          Channel 6
Peak Value:     -4.50 dB   ---     -4.99 dB   ---    -20.45 dB   ---     -7.17 dB   ---     -3.06 dB   ---     -4.26 dB
Avg RMS:       -19.10 dB   ---    -19.91 dB   ---    -35.08 dB   ---    -25.55 dB   ---    -29.26 dB   ---    -26.77 dB
DR channel:     11.90 dB   ---     12.36 dB   ---     11.03 dB   ---     15.28 dB   ---     11.43 dB   ---     14.30 dB
--------------------------------------------------------------------------------
Official DR Value: DR13
Samplerate:        44100 Hz
Channels:          6
Bits per sample:   24
Bitrate:           16934 kbps
Codec:             DST64
================================================================================
#77Треклист:
01. haunting melody
02. Hikari no Kisetsu
03. Mahiru no Tsuki
04. BLUE
05. Taiyou to Tsuki
06. June
07. Ichibanboshi
08. Crawl
09. home
10. Taiki no Soba de
11. Mizukagami
12. Wasurenaide (Album version)
13. Tsubomi -blue dreams-
14. memory
Продолжительность: 00:48:56
Контейнер: DFF (*.dff)
Тип рипа: tracks
Разрядность: 64(2,8 MHz/1 Bit)
Формат: DSD
Количество каналов: 2.0
Источник (релизер): SACD (Jpopsuki)
Код: Выделить всё
foobar2000 1.3.9 / Dynamic Range Meter 1.1.1
log date: 2016-05-10 16:30:20
--------------------------------------------------------------------------------
Analyzed: taiyoh to tsuki / taiyoh to tsuki
--------------------------------------------------------------------------------
DR         Peak         RMS     Duration Track
--------------------------------------------------------------------------------
DR9       -3.91 dB   -14.92 dB      4:01 1-haunting melody
DR9       -3.56 dB   -14.46 dB      4:37 2-hikari no kisetsu
DR9       -3.68 dB   -14.97 dB      5:20 3-mahiru no tsuki
DR9       -4.75 dB   -17.26 dB      4:45 4-BLUE
DR9       -4.15 dB   -15.25 dB      6:54 5-taiyoh to tsuki
DR9       -4.22 dB   -15.64 dB      4:17 6-June
DR9       -4.18 dB   -15.26 dB      4:12 7-ichibanboshi
DR9       -3.94 dB   -14.86 dB      4:24 8-Crawl
DR12      -6.57 dB   -20.24 dB      2:45 9-home
DR9       -4.36 dB   -16.22 dB      5:20 10-taijyu no sobade
DR10      -3.93 dB   -16.25 dB      4:43 11-mizukagami
DR11      -4.14 dB   -17.89 dB      4:10 12-wasurenaide(album version)
DR9       -3.95 dB   -15.32 dB      4:11 13-tsubomi-blue dreams-
DR11      -4.15 dB   -18.34 dB      6:53 14-memory
--------------------------------------------------------------------------------
Number of tracks:  14
Official DR value: DR9
Samplerate:        2822400 Hz / PCM Samplerate: 44100 Hz
Channels:          2
Bits per sample:   24
Bitrate:           5645 kbps
Codec:             DSD64
================================================================================
#77Треклист:
01. adamant faith
02. Free and Dream
03. Kanojo no Senaka
04. Mai Ochiru Yuki no Youni
05. TOKYO-days
06. Mata Aeru Sono Hi Made
07. FRIENDS
08. Crystal Tears
09. Shunkashuutou
10. Hanakotoba]
11. Utsusemi
12. Tenshi ga Miru Yume
Продолжительность: 00:57:10
Контейнер: DSF (*.dsf)
Тип рипа: tracks
Разрядность: 64(2,8 MHz/1 Bit)
Формат: DSD
Количество каналов: 2.0
Источник (релизер): OTOTOY
Код: Выделить всё
foobar2000 1.3.9 / Dynamic Range Meter 1.1.1
log date: 2016-02-05 09:27:09
--------------------------------------------------------------------------------
Analyzed: Suara / KIZUNA
--------------------------------------------------------------------------------
DR         Peak         RMS     Duration Track
--------------------------------------------------------------------------------
DR10      -4.15 dB   -15.82 dB      4:38 01-adamant faith
DR10      -3.65 dB   -14.35 dB      3:48 02-Free and Dream
DR11      -3.83 dB   -16.38 dB      5:08 03-kanojo no senaka
DR10      -4.20 dB   -16.50 dB      4:53 04-maiochiru yuki no youni
DR10      -3.69 dB   -15.00 dB      4:34 05-TOKYO-days
DR11      -3.75 dB   -16.91 dB      4:48 06-mata aeru sonohi made
DR11      -3.83 dB   -16.21 dB      4:10 07-furenzu
DR10      -4.07 dB   -16.37 dB      5:15 08-Crystal Tears
DR10      -4.30 dB   -18.01 dB      5:00 09-shunka shutou
DR10      -3.78 dB   -15.97 dB      4:23 10-hanakotoba
DR10      -3.86 dB   -16.25 dB      5:53 11-utsusemi
DR9       -3.87 dB   -15.08 dB      4:41 12-tenshi ga miru yume
--------------------------------------------------------------------------------
Number of tracks:  12
Official DR value: DR10
Samplerate:        2822400 Hz / PCM Samplerate: 44100 Hz
Channels:          2
Bits per sample:   24
Bitrate:           5645 kbps
Codec:             DSD64
================================================================================
#77Треклист:
01. ADAMANT FAITH
02. KIMI DAKE NO TABIJI
03. AKAI ITO
04. MAI OCHIRU YUKI NO YOU NI
05. TSUBOMI -BLUE DREAMS-
06. KOI NO YOKAN
07. MUGEN NO OKA
08. SHUNKASHUUTOU
09. KIMIGATAME
10. TAIYOU TO TSUKI
01. MIZUKAGAMI
02. HANAKOTOBA
03. SEIZA
04. TENSHI GA MIRU YUME
05. FRIENDS
06. AOIRO NO SORA
07. FREE AND DREAM
08. MUSOUKA
09. ASHITA HE-SORAIRO NO TEGAMI-
10. TOMOSHIBI
11. CRYSTAL TEARS
Продолжительность: 1:48:38
Контейнер: DFF (*.dff)
Тип рипа: tracks
Разрядность: 64(2,8 MHz/1 Bit)
Формат: DSD
Количество каналов: 2.0
Источник (релизер): SACD
17039434[0x104004a]: SACD-Ripper Version 0.36
17039434[0x104004a]: config: 00 00 00 0c 00 00 00 00 ff 41 00 04 00 00 00 00
17039434[0x104004a]: config: 00 00 00 00 00 00 00 00 00 00 00 00 00 00 00 00
17039434[0x104004a]: config: 00 00 00 00 00 00 00 00 00 00 00 00 00 00 00 00
17039434[0x104004a]: config: 00 00 00 00 00 00 00 00 00 00 00 00 00 00 00 00
17039434[0x104004a]: device_info: 75 6e 6e 61 6d 65 5c 10 80 00 00 00 00 53 a0 00
17039434[0x104004a]: device_info: 80 00 00 00 10 12 9e 70 80 00 00 00 00 52 5c 00
17039434[0x104004a]: device_info: 00 00 00 00 00 00 00 00 00 00 00 00 7f ff ff ff
17039434[0x104004a]: device_info: 00 00 08 00 00 00 00 01 00 01 01 00 00 00 00 01
17039434[0x104004a]: disc inserted..
17039434[0x104004a]: config: 00 00 00 0c 00 00 00 10 ff 41 01 04 00 00 00 00
17039434[0x104004a]: config: 00 00 00 00 00 00 00 00 00 00 00 00 00 00 00 00
17039434[0x104004a]: config: 00 00 00 00 00 00 00 00 00 00 00 00 00 00 00 00
17039434[0x104004a]: config: 00 00 00 00 00 00 00 00 00 00 00 00 00 00 00 00
17039434[0x104004a]: device_info: 75 6e 6e 61 6d 65 5c 10 80 00 00 00 00 53 a0 00
17039434[0x104004a]: device_info: 80 00 00 00 10 12 9e 70 80 00 00 00 00 52 5c 00
17039434[0x104004a]: device_info: 00 00 00 00 00 00 00 00 00 00 00 00 00 10 63 5f
17039434[0x104004a]: device_info: 00 00 08 00 00 00 00 01 00 01 01 00 00 00 00 01
17039434[0x104004a]: Album Title: Suara LIVE 2010 utahajime
17039434[0x104004a]: Album Artist: Suara
17039434[0x104004a]: Disc Version: 01.20
17039434[0x104004a]: config: 00 00 00 0c 00 00 00 10 ff 41 01 04 00 00 00 00
17039434[0x104004a]: config: 00 00 00 00 00 00 00 00 00 00 00 00 00 00 00 00
17039434[0x104004a]: config: 00 00 00 00 00 00 00 00 00 00 00 00 00 00 00 00
17039434[0x104004a]: config: 00 00 00 00 00 00 00 00 00 00 00 00 00 00 00 00
17039434[0x104004a]: device_info: 75 6e 6e 61 6d 65 5c 10 80 00 00 00 00 53 a0 00
17039434[0x104004a]: device_info: 80 00 00 00 10 12 9e 70 80 00 00 00 00 52 5c 00
17039434[0x104004a]: device_info: 00 00 00 00 00 00 00 00 00 00 00 00 00 10 63 5f
17039434[0x104004a]: device_info: 00 00 08 00 00 00 00 01 00 01 01 00 00 00 00 01
17039434[0x104004a]: succeeded. raw_spu number is 0
17039434[0x104004a]: succeeded. entry d0
17039434[0x104004a]: Establishing the interrupt tag on the interrupt PPU thread.
17039434[0x104004a]: ioctl_report_key1[45023901] 0
17039434[0x104004a]: sac_exec_generate_key 0 c9 0
17039434[0x104004a]: ioctl_send_key[2] c9 0
17039434[0x104004a]: ioctl_report_key[2] c8 0
17039434[0x104004a]: sac_exec_validate_key_1[0]
17039434[0x104004a]: sac_exec_generate_key_2[ae] 0
17039434[0x104004a]: ioctl_send_key[3] ae 0
17039434[0x104004a]: ioctl_report_key[3] b0 0
17039434[0x104004a]: sac_exec_validate_key_2[0]
17039434[0x104004a]: ioctl_report_key[4] 30 0
17039434[0x104004a]: sac_exec_validate_key_3[0]
17039434[0x104004a]: ioctl_report_finish [0xff] 0
17039434[0x104004a]: Queuing raw: /dev_usb003/Suara - Suara LIVE 2010 utahajime.iso, start_lsn: 0, length_lsn: 1074015
16908361[0x1020049]: SACD-Ripper Version 0.36
16908361[0x1020049]: config: 00 00 00 0c 00 00 00 00 ff 41 00 04 00 00 00 00
16908361[0x1020049]: config: 00 00 00 00 00 00 00 00 00 00 00 00 00 00 00 00
16908361[0x1020049]: config: 00 00 00 00 00 00 00 00 00 00 00 00 00 00 00 00
16908361[0x1020049]: config: 00 00 00 00 00 00 00 00 00 00 00 00 00 00 00 00
16908361[0x1020049]: device_info: 75 6e 6e 61 6d 65 5c 10 80 00 00 00 00 5d 30 00
16908361[0x1020049]: device_info: 80 00 00 00 10 13 de 70 80 00 00 00 00 54 1c 00
16908361[0x1020049]: device_info: 00 00 00 00 00 00 00 00 00 00 00 00 7f ff ff ff
16908361[0x1020049]: device_info: 00 00 08 00 00 00 00 01 00 01 01 00 00 00 00 01
16908361[0x1020049]: disc inserted..
16908361[0x1020049]: config: 00 00 00 0c 00 00 00 10 ff 41 01 04 00 00 00 00
16908361[0x1020049]: config: 00 00 00 00 00 00 00 00 00 00 00 00 00 00 00 00
16908361[0x1020049]: config: 00 00 00 00 00 00 00 00 00 00 00 00 00 00 00 00
16908361[0x1020049]: config: 00 00 00 00 00 00 00 00 00 00 00 00 00 00 00 00
16908361[0x1020049]: device_info: 75 6e 6e 61 6d 65 5c 10 80 00 00 00 00 5d 30 00
16908361[0x1020049]: device_info: 80 00 00 00 10 13 de 70 80 00 00 00 00 54 1c 00
16908361[0x1020049]: device_info: 00 00 00 00 00 00 00 00 00 00 00 00 00 12 80 49
16908361[0x1020049]: device_info: 00 00 08 00 00 00 00 01 00 01 01 00 00 00 00 01
16908361[0x1020049]: Album Title: Suara LIVE 2010 utahajime
16908361[0x1020049]: Album Artist: Suara
16908361[0x1020049]: Disc Version: 01.20
16908361[0x1020049]: config: 00 00 00 0c 00 00 00 10 ff 41 01 04 00 00 00 00
16908361[0x1020049]: config: 00 00 00 00 00 00 00 00 00 00 00 00 00 00 00 00
16908361[0x1020049]: config: 00 00 00 00 00 00 00 00 00 00 00 00 00 00 00 00
16908361[0x1020049]: config: 00 00 00 00 00 00 00 00 00 00 00 00 00 00 00 00
16908361[0x1020049]: device_info: 75 6e 6e 61 6d 65 5c 10 80 00 00 00 00 5d 30 00
16908361[0x1020049]: device_info: 80 00 00 00 10 13 de 70 80 00 00 00 00 54 1c 00
16908361[0x1020049]: device_info: 00 00 00 00 00 00 00 00 00 00 00 00 00 12 80 49
16908361[0x1020049]: device_info: 00 00 08 00 00 00 00 01 00 01 01 00 00 00 00 01
16908361[0x1020049]: succeeded. raw_spu number is 0
16908361[0x1020049]: succeeded. entry d0
16908361[0x1020049]: Establishing the interrupt tag on the interrupt PPU thread.
16908361[0x1020049]: ioctl_report_key1[45023901] 0
16908361[0x1020049]: sac_exec_generate_key 0 c9 0
16908361[0x1020049]: ioctl_send_key[2] c9 0
16908361[0x1020049]: ioctl_report_key[2] c8 0
16908361[0x1020049]: sac_exec_validate_key_1[0]
16908361[0x1020049]: sac_exec_generate_key_2[ae] 0
16908361[0x1020049]: ioctl_send_key[3] ae 0
16908361[0x1020049]: ioctl_report_key[3] b0 0
16908361[0x1020049]: sac_exec_validate_key_2[0]
16908361[0x1020049]: ioctl_report_key[4] 30 0
16908361[0x1020049]: sac_exec_validate_key_3[0]
16908361[0x1020049]: ioctl_report_finish [0xff] 0
16908361[0x1020049]: Queuing raw: /dev_usb003/Suara - Suara LIVE 2010 utahajime.iso, start_lsn: 0, length_lsn: 1212489
Код: Выделить всё
foobar2000 1.3.10 / Dynamic Range Meter 1.1.1
log date: 2016-07-23 09:46:59
--------------------------------------------------------------------------------
Analyzed: Suara LIVE 2010 utahajime / Suara LIVE 2010 utahajime
--------------------------------------------------------------------------------
DR         Peak         RMS     Duration Track
--------------------------------------------------------------------------------
DR9       -3.96 dB   -15.07 dB      6:13 01-adamant faith
DR9       -3.70 dB   -13.98 dB      3:58 02-kimidake no tabiji
DR9       -3.76 dB   -14.06 dB      4:43 03-akai ito
DR10      -4.00 dB   -16.42 dB      5:05 04-maiochiru yuki no youni
DR10      -3.48 dB   -14.85 dB      4:11 05-tsubomi-blue dreams-
DR10      -4.08 dB   -14.77 dB      4:37 06-koi no yokan
DR13      -3.85 dB   -20.53 dB      5:07 07-mugen no oka
DR11      -5.82 dB   -21.15 dB      4:30 08-shunkashutou
DR12      -4.12 dB   -18.89 dB      6:26 09-kimigatame
DR12      -3.70 dB   -19.19 dB      6:12 10-taiyou to tsuki
--------------------------------------------------------------------------------
Number of tracks:  10
Official DR value: DR11
Samplerate:        44100 Hz
Channels:          2
Bits per sample:   24
Bitrate:           5645 kbps
Codec:             DSD64
================================================================================
foobar2000 1.3.10 / Dynamic Range Meter 1.1.1
log date: 2016-07-23 09:47:59
--------------------------------------------------------------------------------
Analyzed: Suara LIVE 2010 utahajime / Suara LIVE 2010 utahajime
--------------------------------------------------------------------------------
DR         Peak         RMS     Duration Track
--------------------------------------------------------------------------------
DR11      -3.90 dB   -16.08 dB      4:40 01-mizukagami
DR10      -4.04 dB   -16.45 dB      4:37 02-hanakotoba
DR10      -3.93 dB   -16.93 dB      6:40 03-seiza
DR10      -4.02 dB   -15.14 dB      4:43 04-tenshi ga miru yume
DR10      -3.91 dB   -14.96 dB      4:21 05-friends
DR10      -4.06 dB   -15.48 dB      4:56 06-aoiro no sora
DR10      -4.06 dB   -14.48 dB      4:58 07-Free and Dream
DR10      -3.96 dB   -14.59 dB      5:20 08-musouka
DR12      -3.77 dB   -17.99 dB      5:01 09-asue-sorairo no tegami-
DR13      -3.81 dB   -18.31 dB      4:55 10-tomoshibi
DR10      -3.82 dB   -16.55 dB      7:25 11-Crystal Tears
--------------------------------------------------------------------------------
Number of tracks:  11
Official DR value: DR11
Samplerate:        44100 Hz
Channels:          2
Bits per sample:   24
Bitrate:           5645 kbps
Codec:             DSD64
================================================================================
#77Треклист:
01. Rin to Shite Saku Hana no You ni
02. Akai Ito
03. Kaze no Requiem
04. Kakurenbo
05. Arehataredoki
06. Yokorenbo
07. Beat ni Awasete
08. Kite
09. Kikyou
10. Bokura no Tabi
11. Uta Tane
12. Yuki no Mahou
13. POWDER SNOW
Продолжительность: 01:01:29
Контейнер: DSF (*.dsf)
Тип рипа: tracks
Разрядность: 64(2,8 MHz/1 Bit)
Формат: DSD
Количество каналов: 2.0
Источник (релизер): OTOTOY
Код: Выделить всё
foobar2000 1.3.9 / Dynamic Range Meter 1.1.1
log date: 2016-02-03 17:12:10
--------------------------------------------------------------------------------
Analyzed: SUARA / karin
--------------------------------------------------------------------------------
DR         Peak         RMS     Duration Track
--------------------------------------------------------------------------------
DR9       -3.85 dB   -14.77 dB      4:42 01-Rintoshite saku hananoyouni
DR9       -4.24 dB   -13.84 dB      4:36 02-Akaiito
DR9       -4.18 dB   -14.65 dB      4:33 03-Kazeno Requiem
DR10      -4.37 dB   -16.75 dB      4:47 04-Kakurenbo
DR9       -4.30 dB   -15.69 dB      5:45 05-Arehataredoki
DR9       -3.94 dB   -14.41 dB      4:07 06-Yokorenbo
DR10      -3.34 dB   -15.16 dB      4:35 07-Beat ni awasete
DR10      -3.59 dB   -14.69 dB      4:26 08-Kite
DR11      -4.69 dB   -18.96 dB      3:49 09-kikyo
DR10      -3.29 dB   -15.19 dB      5:23 10-Bokuranotabi
DR11      -3.56 dB   -16.22 dB      4:36 11-Utatane
DR9       -3.84 dB   -14.58 dB      5:03 12-Yukino Mahou
DR9       -4.33 dB   -16.27 dB      5:07 13-POWDER SNOW
--------------------------------------------------------------------------------
Number of tracks:  13
Official DR value: DR10
Samplerate:        2822400 Hz / PCM Samplerate: 44100 Hz
Channels:          2
Bits per sample:   24
Bitrate:           5645 kbps
Codec:             DSD64
================================================================================
#77Треклист:
01. Seiza
02. Amane Uta
03. Kimi ga Tame
04. Tomoshibi
05. Musouka
Продолжительность: 00:26:31
Контейнер: DSF (*.dsf)
Тип рипа: tracks
Разрядность: 128(5,6 MHz/1 Bit)
Формат: DSD
Количество каналов: 2.0
Источник (релизер): OTOTOY
Код: Выделить всё
foobar2000 1.3.9 / Dynamic Range Meter 1.1.1
log date: 2016-02-03 17:19:53
--------------------------------------------------------------------------------
Analyzed: Suara / Special Place Recording -Suara at Kyudo Kaikan-
--------------------------------------------------------------------------------
DR         Peak         RMS     Duration Track
--------------------------------------------------------------------------------
DR12      -6.64 dB   -22.70 dB      6:26 01-Seiza
DR11      -7.88 dB   -22.65 dB      4:55 02-Amaneuta
DR12      -6.70 dB   -21.96 dB      6:20 03-Kimigatame
DR11      -7.07 dB   -22.40 dB      4:16 04-Tomoshibi
DR11      -6.44 dB   -20.00 dB      4:34 05-Musouka
--------------------------------------------------------------------------------
Number of tracks:  5
Official DR value: DR12
Samplerate:        5644800 Hz / PCM Samplerate: 44100 Hz
Channels:          2
Bits per sample:   24
Bitrate:           11290 kbps
Codec:             DSD128
================================================================================
#77Треклист:
01. Nue Dori
02. Future World
03. Fly away -Oozora he-
04. Koe wo Kikasete
05. Subete wo Anata ni
06. Koi Yume
07. Seijaku
08. Kimi no Maede wa Shounen no Mama
09. Niji Iro no Mirai
10. I'm a beast
11. Song of...
12. Dream
13. Hatsusora
14. sakura (Bonus)
Продолжительность: 01:04:16
Контейнер: DSF (*.dsf)
Тип рипа: tracks
Разрядность: 64(2,8 MHz/1 Bit)
Формат: DSD
Количество каналов: 2.0
Источник (релизер): OTOTOY
Код: Выделить всё
foobar2000 1.3.9 / Dynamic Range Meter 1.1.1
log date: 2016-02-05 09:30:13
--------------------------------------------------------------------------------
Analyzed: Suara / Koe
--------------------------------------------------------------------------------
DR         Peak         RMS     Duration Track
--------------------------------------------------------------------------------
DR8       -6.03 dB   -15.88 dB      5:00 01-Nue Dori
DR10      -4.49 dB   -15.24 dB      3:23 02-Future World
DR11      -4.83 dB   -16.53 dB      3:26 03-Fly away -Oozora he-
DR9       -4.55 dB   -16.63 dB      5:02 04-Koe wo Kikasete
DR9       -4.43 dB   -14.89 dB      4:02 05-Subete wo Anata ni
DR8       -6.01 dB   -17.55 dB      5:58 06-Koi Yume
DR10      -4.47 dB   -16.80 dB      5:34 07-Seijaku
DR10      -4.30 dB   -16.01 dB      5:26 08-Kimi no Maede wa Shounen no Mama
DR9       -4.42 dB   -14.72 dB      3:37 09-Niji Iro no Mirai
DR10      -4.35 dB   -15.79 dB      3:48 10-I'm a beast
DR9       -4.34 dB   -15.25 dB      4:18 11-Song of...
DR9       -4.37 dB   -14.68 dB      4:45 12-Dream
DR11      -6.22 dB   -20.87 dB      4:16 13-Hatsusora
--------------------------------------------------------------------------------
Number of tracks:  13
Official DR value: DR9
Samplerate:        2822400 Hz / PCM Samplerate: 44100 Hz
Channels:          2
Bits per sample:   24
Bitrate:           5645 kbps
Codec:             DSD64
================================================================================
foobar2000 1.3.9 / Dynamic Range Meter 1.1.1
log date: 2016-02-05 09:29:03
--------------------------------------------------------------------------------
Statistics for: ?-sakura
Number of samples: 959750968
Duration: 5:40
--------------------------------------------------------------------------------
                 Left              Right
Peak Value:     -4.86 dB   ---     -4.45 dB
Avg RMS:       -17.17 dB   ---    -16.67 dB
DR channel:     10.17 dB   ---     10.04 dB
--------------------------------------------------------------------------------
Official DR Value: DR10
Samplerate:        2822400 Hz / PCM Samplerate: 44100 Hz
Channels:          2
Bits per sample:   24
Bitrate:           5645 kbps
Codec:             DSD64
================================================================================
#77Треклист:
01. Nue Dori
02. Koi Yume
03. Fuantei na Kamisama
04. Yume ka Utsutsu ka
05. Amakakeru Hoshi
06. Hoshi Furu Sora Aogi Mite
07. Hikari
08. Kimi ga Tame 2016
09. Towa ni 2016
10. Uruwashiki Sekai
11. Musouka 2016
Продолжительность: 00:56:38
Контейнер: DSF (*.dsf)
Тип рипа: tracks
Разрядность: 64(2,8 MHz/1 Bit)
Формат: DSD
Количество каналов: 2.0
Источник (релизер): OTOTOY
Код: Выделить всё
foobar2000 1.3.15 / Dynamic Range Meter 1.1.1
log date: 2017-09-08 12:25:25
--------------------------------------------------------------------------------
Analyzed: Suara / うたわれるもの 偽りの仮面 & 二人の白皇 歌集
--------------------------------------------------------------------------------
DR         Peak         RMS     Duration Track
--------------------------------------------------------------------------------
DR10      -2.73 dB   -15.33 dB      5:00 ?-ヌエドリ
DR11      -2.88 dB   -16.74 dB      5:59 ?-恋夢
DR10      -2.87 dB   -14.82 dB      4:03 ?-不安定な神様
DR10      -3.05 dB   -16.34 dB      5:12 ?-ユメカウツツカ
DR10      -2.83 dB   -14.37 dB      3:47 ?-天かける星
DR10      -2.81 dB   -16.02 dB      4:59 ?-星降る空仰ぎ見て
DR11      -2.83 dB   -14.88 dB      4:14 ?-星灯
DR10      -2.83 dB   -15.53 dB      6:36 ?-キミガタメ 2016
DR10      -3.59 dB   -15.89 dB      6:41 ?-永久に 2016
DR10      -2.60 dB   -15.47 dB      5:06 ?-麗しき世界
DR11      -3.41 dB   -16.65 dB      5:00 ?-夢想歌 2016
--------------------------------------------------------------------------------
Number of tracks:  11
Official DR value: DR10
Samplerate:        44100 Hz / PCM Samplerate: 352800 Hz
Channels:          2
Bits per sample:   24
Bitrate:           5645 kbps
Codec:             DSD64
================================================================================
#77Треклист:
01. Nue Dori
02. Koi Yume
03. Fuantei na Kamisama
04. Yume ka Utsutsu ka
05. Amakakeru Hoshi
06. Hoshi Furu Sora Aogi Mite
07. Hikari
08. Kimi ga Tame 2016
09. Towa ni 2016
10. Uruwashiki Sekai
11. Musouka 2016
12. Kimi Dake no Tabiji
13. Musouka
14. adamant faith
15. Kimi ga Tame
Качество винила дно, даже с офф сайта удалили всю инфу.
Продолжительность: 01:14:28
Контейнер: DSF (*.dsf)
Тип рипа: tracks
Разрядность: 128(5,6 MHz/1 Bit)
Формат: DSD
Количество каналов: 2.0
Источник (релизер): Audio Union
Код: Выделить всё
foobar2000 1.3.15 / Dynamic Range Meter 1.1.1
log date: 2017-09-08 12:34:16
--------------------------------------------------------------------------------
Analyzed: Suara / うたわれるもの 偽りの仮面&二人の白皇
--------------------------------------------------------------------------------
DR         Peak         RMS     Duration Track
--------------------------------------------------------------------------------
DR13      -6.88 dB   -21.10 dB      4:28 ?-Adamant faith
DR12      -7.57 dB   -21.98 dB      6:50 ?-キミガタメ
DR13      -6.52 dB   -21.86 dB      6:26 ?-キミガタメ 2016
DR13      -7.44 dB   -22.49 dB      5:25 ?-ユメカウツツカ
DR13      -6.73 dB   -21.19 dB      3:55 ?-不安定な神様
DR13      -7.35 dB   -21.41 dB      3:51 ?-君だけの旅路
DR12      -7.35 dB   -20.95 dB      3:59 ?-夢想歌
DR13      -6.72 dB   -21.86 dB      4:53 ?-夢想歌 2016
DR13      -6.50 dB   -20.69 dB      3:39 ?-天かける星
DR13      -7.43 dB   -22.44 dB      5:49 ?-恋夢
DR13      -6.97 dB   -21.22 dB      4:06 ?-星灯
DR13      -7.17 dB   -22.41 dB      4:49 ?-星降る空仰ぎ見て
DR12      -8.43 dB   -21.99 dB      6:27 ?-永久に 2016
DR13      -6.54 dB   -21.65 dB      4:59 ?-麗しき世界
DR13      -7.32 dB   -21.83 dB      4:53 ?-ヌエドリ
--------------------------------------------------------------------------------
Number of tracks:  15
Official DR value: DR13
Samplerate:        352800 Hz
Channels:          2
Bits per sample:   24
Bitrate:           5645 kbps
Codec:             DSD64
================================================================================
#77Треклист:
01. Intro
02. Fuanteina Kamisama
03. Kimi Dake no Tabiji
04. adamant faith
05. Madoromi no Rinne
06. Musouka 2016
07. Koi Yume
08. Towa ni 2016
09. Uruwashiki Sekai
10. Sadame (Yuzuki Ryouta)
11. Yume no Tsuzuki (Suara & Yuzuki Ryouta)
12. Boku Dake no Tabiji (Koyama Tsuyoshi)
13. Shin Utawarerumono no Theme (Koyama Tsuyoshi with Suara & Yuzuki Ryouta)
14. Nue Dori
15. Hoshi Furu Sora Aogi Mite
16. Yume ka Utsutsu ka
17. Hikari
18. Musouka
19. Kimi ga Tame 2016
Encore
20. Amakakeru Hoshi
21. Fuanteina Kamisama
Продолжительность: 01:38:16
Контейнер: FLAC (*.flac)
Тип рипа: tracks
Разрядность: 24bit 96 kHz
Формат: FLAC
Количество каналов: 2.0
Источник (релизер): Audio Union
Код: Выделить всё
foobar2000 1.3.15 / Dynamic Range Meter 1.1.1
log date: 2017-09-08 12:51:00
--------------------------------------------------------------------------------
Analyzed: Koyama Tsuyoshi with Suara & Yuzuki Ryouta / Utawarerumono SUPER LIVE 2016 (1)
          Koyama Tsuyoshi / Utawarerumono SUPER LIVE 2016 (2)
          Suara & Yuzuki Ryouta / Utawarerumono SUPER LIVE 2016 (3)
          Suara / Utawarerumono SUPER LIVE 2016 (4-20)
          Yuzuki Ryouta / Utawarerumono SUPER LIVE 2016 (21)
--------------------------------------------------------------------------------
DR         Peak         RMS     Duration Track
--------------------------------------------------------------------------------
DR12      -5.93 dB   -20.20 dB      3:49 ?-Shin Utawarerumono no Theme
DR13      -5.29 dB   -19.53 dB      4:43 ?-Boku Dake no Tabiji
DR13      -5.29 dB   -20.58 dB      4:52 ?-Yume no Tsuzuki
DR9      -11.34 dB   -22.26 dB      0:33 ?-Intro
DR12      -5.66 dB   -19.73 dB      4:03 ?-Fuanteina Kamisama
DR13      -5.24 dB   -20.02 dB      4:01 ?-Kimi Dake no Tabiji
DR13      -6.03 dB   -20.71 dB      4:35 ?-adamant faith
DR14      -5.38 dB   -21.99 dB      5:08 ?-Madoromi no Rinne
DR12      -7.60 dB   -23.73 dB      5:07 ?-Musouka 2016
DR13      -6.23 dB   -23.42 dB      6:01 ?-Koi Yume
DR12      -5.43 dB   -20.31 dB      6:41 ?-Towa ni 2016
DR13      -4.88 dB   -20.85 dB      5:15 ?-Uruwashiki Sekai
DR13      -4.64 dB   -20.36 dB      5:03 ?-Nue Dori
DR10      -8.29 dB   -21.48 dB      5:02 ?-Hoshi Furu Sora Aogi Mite
DR14      -4.29 dB   -22.15 dB      5:06 ?-Yume ka Utsutsu ka
DR13      -5.50 dB   -19.99 dB      4:15 ?-Hikari
DR13      -4.76 dB   -19.68 dB      4:13 ?-Musouka
DR13      -5.01 dB   -20.68 dB      7:31 ?-Kimi ga Tame 2016
DR13      -5.14 dB   -19.63 dB      3:42 ?-Amakakeru Hoshi (Encore)
DR12      -5.28 dB   -19.32 dB      4:21 ?-Fuanteina Kamisama (Encore)
DR13      -6.91 dB   -23.15 dB      4:17 ?-Sadame
--------------------------------------------------------------------------------
Number of tracks:  21
Official DR value: DR12
Samplerate:        96000 Hz
Channels:          2
Bits per sample:   24
Bitrate:           2415 kbps
Codec:             FLAC
================================================================================
#77Треклист:
01. Funtei na Kamisama
02. Amakakeru Hoshi
03. Honoo no Tori
04. Yume ka Utsutsu ka
05. Kage
06. Komorebi no Naka de
07. Kanashimi no Soko
08. Hoshi Furu Sora Aogi Mite
09. Uruwashiki Sekai
10. Junshin no Hana
11. Merry Christmas
12. Mimi wo Sumaseba
13. Pride
14. Hikari
Продолжительность: 01:05:11
Контейнер: DSF (*.dsf)
Тип рипа: tracks
Разрядность: 64(2,8 MHz/1 Bit)
Формат: DSD
Количество каналов: 2.0
Источник (релизер): OTOTOY
Код: Выделить всё
foobar2000 1.3.17 / Dynamic Range Meter 1.1.1
log date: 2018-04-15 17:04:03
--------------------------------------------------------------------------------
Analyzed: Suara / Hikari
--------------------------------------------------------------------------------
DR         Peak         RMS     Duration Track
--------------------------------------------------------------------------------
DR10      -1.73 dB   -14.12 dB      4:02 01-Fuantei Na Kamisama
DR10      -1.50 dB   -13.52 dB      3:45 02-Ten Kakeru Hoshi
DR11      -2.41 dB   -14.94 dB      4:23 03-Honoo No Tori
DR11      -1.88 dB   -15.76 dB      5:12 04-Yumekautsutsuka
DR10      -3.30 dB   -14.59 dB      5:34 05-Kage
DR11      -3.40 dB   -16.31 dB      5:58 06-Komorebi No Naka De
DR10      -3.70 dB   -17.47 dB      3:56 07-Kanashimi No Soko
DR11      -1.78 dB   -15.33 dB      4:59 08-Hoshi Furu Sora Aogi Mi Te
DR10      -2.26 dB   -14.95 dB      5:06 09-Uruwashiki Sekai
DR11      -2.21 dB   -16.17 dB      5:00 10-Junshin No Hana
DR12      -2.68 dB   -16.57 dB      4:28 11-Merry Christmas
DR11      -2.22 dB   -14.75 dB      4:27 12-Mimi Wo Sumase Ba
DR10      -3.56 dB   -15.18 dB      4:07 13-Pride
DR11      -1.70 dB   -14.05 dB      4:13 14-Hikari
--------------------------------------------------------------------------------
Number of tracks:  14
Official DR value: DR11
Samplerate:        352800 Hz
Channels:          2
Bits per sample:   24
Bitrate:           5645 kbps
Codec:             DSD64
================================================================================

Compilations
#77Треклист:
01. Suiren amanekuhana
02. Seiza
03. Tomoshibi
04. Musouka
05. Kimidakeno tabiji
06. Kimigatame
07. Hikarino Kisetsu
08. Kasa
09. Ichibanboshi
10. I am
11. Blue
12. Tsubomi -blue dreams-
13. Wasurenaide
14. haunting melody
15. memory
01. Maiochiru yukinoyouni
02. Free and Dream
03. adamant faith
04. Friends
05. Hanakotoba
06. Utsusemi
07. MOON PHASE
08. Akai ito
09. Yukino mahou
10. POWDER SNOW
11. Kimino kawari
12. Nijiirono mirai
13. Future World
01. Musouka Pure Version
02. POWDER SNOW Pure Version
03. Kimigatame Pure Version
04. Seiza Pure Version
05. Suiren -amanekuhana- 2010 Remix
06. Seiza 2010 Remix
07. Tomoshibi acoustic version 2010 Remix
08. Kimigatame Pure2 Version
09. Seisouyakyoku Pure2 Version
10. Tomoshibi Pure2 Version
11. Tears to Tiara gaika Pure2 Version
12. memory English Version
Продолжительность: 03:21:05
Контейнер: DFF (*.dff)
Тип рипа: tracks
Разрядность: 64(2,8 MHz/1 Bit)
Формат: DSD
Количество каналов: 2.0
Источник (релизер): SACD
Код: Выделить всё
foobar2000 1.3.10 / Dynamic Range Meter 1.1.1
log date: 2016-07-23 10:03:58
--------------------------------------------------------------------------------
Analyzed: Suara / The BEST -TIE UP COLLECTION-
--------------------------------------------------------------------------------
DR         Peak         RMS     Duration Track
--------------------------------------------------------------------------------
DR11      -4.00 dB   -18.28 dB      4:37 01-Suiren -amanekuhana-
DR11      -4.56 dB   -17.81 dB      6:21 02-Seiza
DR11      -4.35 dB   -18.32 dB      4:08 03-Tomoshibi
DR11      -4.79 dB   -16.64 dB      4:06 04-Musouka
DR12      -4.48 dB   -17.85 dB      3:58 05-Kimidakeno Tabiji
DR10      -4.90 dB   -18.14 dB      7:03 06-Kimigatame
DR11      -3.96 dB   -17.00 dB      4:37 07-Hikarino Kisetsu
DR8       -8.65 dB   -20.64 dB      4:15 08-Kasa
DR11      -4.31 dB   -17.93 dB      4:13 09-Ichibanboshi
DR10      -4.68 dB   -17.36 dB      4:40 10-I am
DR12      -4.47 dB   -19.77 dB      4:45 11-BLUE
DR11      -4.23 dB   -17.41 dB      4:10 12-Tsubomi -blue dreams-
DR9       -9.28 dB   -20.23 dB      4:09 13-Wasurenaide
DR11      -4.17 dB   -16.94 dB      4:00 14-haunting melody
DR11      -4.47 dB   -18.75 dB      6:53 15-memory
--------------------------------------------------------------------------------
Number of tracks:  15
Official DR value: DR11
Samplerate:        44100 Hz
Channels:          2
Bits per sample:   24
Bitrate:           5645 kbps
Codec:             DSD64
================================================================================
foobar2000 1.3.10 / Dynamic Range Meter 1.1.1
log date: 2016-07-23 10:05:17
--------------------------------------------------------------------------------
Analyzed: Suara / The BEST -TIE UP COLLECTION-
--------------------------------------------------------------------------------
DR         Peak         RMS     Duration Track
--------------------------------------------------------------------------------
DR11      -5.38 dB   -18.04 dB      4:55 01-Maiochiru Yukinoyouni
DR10      -4.71 dB   -16.17 dB      3:48 02-Free and Dream
DR12      -4.22 dB   -17.60 dB      4:35 03-adamant faith
DR12      -4.40 dB   -18.25 dB      4:10 04-Friends
DR12      -4.57 dB   -18.44 dB      4:22 05-Hanakotoba
DR12      -4.10 dB   -18.71 dB      5:52 06-Utsusemi
DR12      -3.99 dB   -18.81 dB      4:54 07-MOON PHASE
DR11      -3.99 dB   -16.60 dB      4:35 08-Akai Ito
DR11      -4.48 dB   -17.61 dB      5:01 09-Yukino Mahou
DR11      -4.46 dB   -19.10 dB      5:06 10-POWDER SNOW
DR12      -4.09 dB   -18.88 dB      6:06 11-Kimino Kawari
DR12      -4.87 dB   -18.09 dB      3:37 12-Nijiirono Mirai
DR10      -4.98 dB   -17.37 dB      3:22 13-Future World
--------------------------------------------------------------------------------
Number of tracks:  13
Official DR value: DR11
Samplerate:        44100 Hz
Channels:          2
Bits per sample:   24
Bitrate:           5645 kbps
Codec:             DSD64
================================================================================
foobar2000 1.3.10 / Dynamic Range Meter 1.1.1
log date: 2016-07-23 10:06:32
--------------------------------------------------------------------------------
Analyzed: Suara / The BEST -TIE UP COLLECTION-
--------------------------------------------------------------------------------
DR         Peak         RMS     Duration Track
--------------------------------------------------------------------------------
DR12      -4.36 dB   -19.45 dB      5:29 01-Musouka Pure Version
DR11      -5.75 dB   -21.59 dB      5:15 02-POWDER SNOW Pure Version
DR11      -4.15 dB   -18.99 dB      5:35 03-Kimigatame Pure Version
DR12      -4.28 dB   -19.11 dB      6:42 04-Seiza Pure Version
DR12      -4.46 dB   -18.65 dB      4:35 05-Suiren -amanekuhana- 2010 Remix
DR13      -4.29 dB   -19.29 dB      6:23 06-Seiza 2010 Remix
DR12      -4.44 dB   -18.98 dB      4:27 07-Tomoshibi acoustic version 2010 Remix
DR12      -4.42 dB   -18.78 dB      5:34 08-Kimigatame Pure2 Version
DR13      -3.81 dB   -18.94 dB      6:13 09-Seisouyakyoku Pure2 Version
DR12      -4.47 dB   -20.20 dB      6:28 10-Tomoshibi Pure2 Version
DR13      -4.19 dB   -20.20 dB      5:13 11-Tears to Tiara gaika Pure2 Version
DR11      -4.46 dB   -19.11 dB      6:53 12-memory English Version
--------------------------------------------------------------------------------
Number of tracks:  12
Official DR value: DR12
Samplerate:        44100 Hz
Channels:          2
Bits per sample:   24
Bitrate:           5645 kbps
Codec:             DSD64
================================================================================

Singles
#77Треклист:
01. powder snow
02. sakura
Продолжительность: 00:11:46
Контейнер: DSF (*.dsf)
Тип рипа: tracks
Разрядность: 64(2,8 MHz/1 Bit)
Формат: DSD
Количество каналов: 2.0
Источник (релизер): OTOTOY
Код: Выделить всё
foobar2000 1.3.9 / Dynamic Range Meter 1.1.1
log date: 2016-02-05 09:32:56
--------------------------------------------------------------------------------
Analyzed: Suara / DSD live session
--------------------------------------------------------------------------------
DR         Peak         RMS     Duration Track
--------------------------------------------------------------------------------
DR12      -6.29 dB   -21.36 dB      6:01 01-powder snow
DR13      -6.29 dB   -23.54 dB      5:45 02-sakura
--------------------------------------------------------------------------------
Number of tracks:  2
Official DR value: DR12
Samplerate:        2822400 Hz / PCM Samplerate: 44100 Hz
Channels:          2
Bits per sample:   24
Bitrate:           5645 kbps
Codec:             DSD64
================================================================================
#77Треклист:
01. Fly away -Oozora he-
02. promise
Продолжительность: 00:08:09
Контейнер: FLAC (*.flac)
Тип рипа: tracks
Разрядность: 24bit 96 kHz
Формат: FLAC
Количество каналов: 2.0
Источник (релизер): OTOTOY
Код: Выделить всё
foobar2000 1.3.9 / Dynamic Range Meter 1.1.1
log date: 2016-02-05 09:34:04
--------------------------------------------------------------------------------
Analyzed: Suara / Fly away -Oozora he-
--------------------------------------------------------------------------------
DR         Peak         RMS     Duration Track
--------------------------------------------------------------------------------
DR8        0.00 dB    -8.73 dB      3:24 01-Fly away -Oozora he-
DR8        0.00 dB    -8.20 dB      4:44 02-promise
--------------------------------------------------------------------------------
Number of tracks:  2
Official DR value: DR8
Samplerate:        96000 Hz
Channels:          2
Bits per sample:   24
Bitrate:           3097 kbps
Codec:             FLAC
================================================================================
#77Треклист:
01. Kimi ga Tame
02. Kimi no Kawari
Продолжительность: 00:12:25
Контейнер: DFF (*.dff)
Тип рипа: tracks
Разрядность: 256(11,2 MHz/1 Bit)
Формат: DSD
Количество каналов: 2.0
Источник (релизер): OTOTOY
Код: Выделить всё
foobar2000 1.3.9 / Dynamic Range Meter 1.1.1
log date: 2016-02-03 17:22:28
--------------------------------------------------------------------------------
Analyzed: ? / ?
--------------------------------------------------------------------------------
DR         Peak         RMS     Duration Track
--------------------------------------------------------------------------------
DR13      -4.56 dB   -22.10 dB      5:57 ?-01 Kimigatame
DR14      -3.81 dB   -22.23 dB      6:27 ?-02 Kiminokawari
--------------------------------------------------------------------------------
Number of tracks:  2
Official DR value: DR13
Samplerate:        11289600 Hz / PCM Samplerate: 44100 Hz
Channels:          2
Bits per sample:   24
Bitrate:           22579 kbps
Codec:             DSD256
================================================================================
#77Треклист:
01. Fuantei na Kamisama
02. Yume Kaotsu Tsuka
03. Kachoufuugetsu
Продолжительность: 00:13:48
Контейнер: FLAC (*.flac)
Тип рипа: tracks
Разрядность: 24bit 96 kHz
Формат: FLAC
Количество каналов: 2.0
Источник (релизер): OTOTOY
Код: Выделить всё
foobar2000 1.3.9 / Dynamic Range Meter 1.1.1
log date: 2016-02-03 17:27:00
--------------------------------------------------------------------------------
Analyzed: Suara / Fuantei na Kamisama
--------------------------------------------------------------------------------
DR         Peak         RMS     Duration Track
--------------------------------------------------------------------------------
DR7       -0.08 dB    -9.22 dB      4:00 01-Fuantei na Kamisama
DR8       -0.07 dB   -11.01 dB      5:11 02-Yume ka Utsutsu ka
DR8       -0.10 dB    -9.73 dB      4:37 03-Kachoufuugetsu
--------------------------------------------------------------------------------
Number of tracks:  3
Official DR value: DR8
Samplerate:        96000 Hz
Channels:          2
Bits per sample:   24
Bitrate:           3151 kbps
Codec:             FLAC
================================================================================
#77Треклист:
01. Merry Christmas
Продолжительность: 00:04:29
Контейнер: FLAC (*.flac)
Тип рипа: tracks
Разрядность: 24bit 96 kHz
Формат: FLAC
Количество каналов: 2.0
Источник (релизер): OTOTOY
Код: Выделить всё
foobar2000 1.3.9 / Dynamic Range Meter 1.1.1
log date: 2016-02-03 17:29:21
--------------------------------------------------------------------------------
Statistics for: 01-Merry Christmas
Number of samples: 25817143
Duration: 4:29
--------------------------------------------------------------------------------
                 Left              Right
Peak Value:     -0.10 dB   ---     -0.10 dB
Avg RMS:       -10.92 dB   ---    -10.95 dB
DR channel:      9.62 dB   ---      9.70 dB
--------------------------------------------------------------------------------
Official DR Value: DR10
Samplerate:        96000 Hz
Channels:          2
Bits per sample:   24
Bitrate:           3024 kbps
Codec:             FLAC
================================================================================
#77Треклист:
01. Amakakeru Hoshi
02. Hoshi Furu Sora Aogi Mite
03. Kanashimi no Yoake Mae
Продолжительность: 00:13:34
Контейнер: FLAC (*.flac)
Тип рипа: tracks
Разрядность: 24bit 96 kHz
Формат: FLAC
Количество каналов: 2.0
Источник (релизер): OTOTOY
Код: Выделить всё
foobar2000 1.3.9 / Dynamic Range Meter 1.1.1
log date: 2016-02-03 17:30:05
--------------------------------------------------------------------------------
Analyzed: Suara / Amakakeru Hoshi
--------------------------------------------------------------------------------
DR         Peak         RMS     Duration Track
--------------------------------------------------------------------------------
DR7       -0.08 dB    -8.77 dB      3:45 01-Amakakeru Hoshi
DR8       -0.09 dB   -10.69 dB      4:57 02-Hoshi Furu Sora Aogi Mite
DR8       -0.10 dB    -9.61 dB      4:51 03-Kanashimi no Yoake Mae
--------------------------------------------------------------------------------
Number of tracks:  3
Official DR value: DR8
Samplerate:        96000 Hz
Channels:          2
Bits per sample:   24
Bitrate:           3061 kbps
Codec:             FLAC
================================================================================
#77Треклист:
01. Honoo no Tori
Продолжительность: 00:04:25
Контейнер: FLAC (*.flac)
Тип рипа: tracks
Разрядность: 24bit 96 kHz
Формат: FLAC
Количество каналов: 2.0
Источник (релизер): OTOTOY
Код: Выделить всё
foobar2000 1.3.10 / Dynamic Range Meter 1.1.1
log date: 2016-08-28 20:48:05
--------------------------------------------------------------------------------
Statistics for: 01-Honoo no Tori
Number of samples: 25466966
Duration: 4:25
--------------------------------------------------------------------------------
                 Left              Right
Peak Value:     -0.09 dB   ---     -0.09 dB
Avg RMS:        -9.66 dB   ---     -9.84 dB
DR channel:      7.78 dB   ---      7.89 dB
--------------------------------------------------------------------------------
Official DR Value: DR8
Samplerate:        96000 Hz
Channels:          2
Bits per sample:   24
Bitrate:           3189 kbps
Codec:             FLAC
================================================================================
#77Треклист:
01. Honoo no Tori
Продолжительность: 00:06:13
Контейнер: FLAC (*.flac)
Тип рипа: tracks
Разрядность: 24bit 96 kHz
Формат: FLAC
Количество каналов: 2.0
Источник (релизер): OTOTOY & OTOTOY
Код: Выделить всё
foobar2000 1.3.15 / Dynamic Range Meter 1.1.1
log date: 2017-09-08 12:23:20
--------------------------------------------------------------------------------
Analyzed: Suara / Hikari
--------------------------------------------------------------------------------
DR         Peak         RMS     Duration Track
--------------------------------------------------------------------------------
DR8       -0.10 dB    -9.40 dB      4:12 ?-Hikari
DR8       -0.10 dB    -9.49 dB      2:01 ?-Hikari (Game Version)
--------------------------------------------------------------------------------
Number of tracks:  2
Official DR value: DR8
Samplerate:        96000 Hz
Channels:          2
Bits per sample:   24
Bitrate:           4616 kbps
Codec:             FLAC
================================================================================
Не забывайте говорить Спасибо. Не уходите с раздачи!   
Торрент: Зарегистрирован [03 фев 2016, 15:52]
Статус:
Проверен
 
.torrent скачан: 0 раз
Хэш: 78b2658f228d7a8966f8b27a6710215624fe9c8d
Размер: 48.9 ГБ (52 504 839 780 байт)
   Стать Автором раздачи
   
Цитата
  • Похожие торренты
    Ответы
    Просмотры
    Последнее сообщение

Вернуться в Поп-музыка (Hi-Res stereo)

Кто сейчас на конференции

Сейчас эту тему просматривают: нет зарегистрированных пользователей и гости: 1