[TR24][OF] Eurythmics - We Too Are One (Remastered) - 1989/2018 (Synth-Pop)

 Статистика раздачи 
Размер: 590.04 МБ   |  Зарегистрирован: 16 ноя 2018, 14:03   |   .torrent скачан: 0 раз
Сидеров: 0  [ 0 байт/сек ]     Личеров: 0  [ 0 байт/сек ]  
  
Аватара пользователя
Главный редактор
Главный редактор
 
Раздал: 90.01 ТБ
Скачал: 3.78 ТБ
Ратио: 24.248
Сообщения: 273485
Стаж: 9 лет 1 месяц 11 дней
Откуда: Санкт-Петербург

Eurythmics - We Too Are One


Формат записи/Источник записи: [TR24][OF]
Наличие водяных знаков: Нет
Издание: Remastered
Год издания: 1989/2018
Жанр: Synth-Pop
Издатель (лейбл): Sony Music CG
Продолжительность:
Наличие сканов в содержимом раздачи: Только обложка альбома
Контейнер: FLAC (*.flac)
Тип рипа: tracks
Разрядность: 24/48
Формат: PCM
Количество каналов: 2.0
Источник (релизер): qobuz.com
Треклист
1. We Two Are One (04:35)
2. The King and Queen of America (04:32)
3. (My My) Baby's Gonna Cry (04:56)
4. Don't Ask Me Why (04:24)
5. Angel (05:15)
6. Revival (04:07)
7. You Hurt Me (And I Hate You) (04:25)
8. Sylvia (04:45)
9. How Long? (04:43)
10. When the Day Goes Down (06:01)
Код: Выделить всё
foobar2000 1.4 / Dynamic Range Meter 1.1.1
log date: 2018-11-16 17:50:58
--------------------------------------------------------------------------------
Analyzed: Eurythmics / We Too Are One (Remastered)
--------------------------------------------------------------------------------
DR         Peak         RMS     Duration Track
--------------------------------------------------------------------------------
DR11      -0.45 dB   -13.80 dB      4:35 01-We Two Are One (Remastered)
DR10      -0.17 dB   -12.07 dB      4:33 02-The King and Queen of America (Remastered)
DR11      -0.29 dB   -12.85 dB      4:57 03-(My My) Baby's Gonna Cry (Remastered)
DR12      -0.48 dB   -14.16 dB      4:25 04-Don't Ask Me Why (Remastered)
DR12      -0.49 dB   -15.03 dB      5:15 05-Angel (Remastered)
DR13      -0.45 dB   -15.73 dB      4:08 06-Revival (Remastered)
DR13      -0.09 dB   -14.85 dB      4:26 07-You Hurt Me (And I Hate You) (Remastered)
DR11      -1.21 dB   -14.74 dB      4:45 08-Sylvia (Remastered)
DR10      -0.60 dB   -12.75 dB      4:44 09-How Long? (Remastered)
DR12      -0.21 dB   -15.72 dB      6:02 10-When the Day Goes Down (Remastered)
--------------------------------------------------------------------------------
Number of tracks:  10
Official DR value: DR11
Samplerate:        48000 Hz
Channels:          2
Bits per sample:   24
Bitrate:           1623 kbps
Codec:             FLAC
================================================================================
Switching to Arista Records in the U.S., Eurythmics made their last album together with We Too Are One, and they went out in style. Calling upon a broad pop range, their seventh album was their best since Be Yourself Tonight in 1985. The sound was varied, the melodies were strong, and the lyrics were unusually well-crafted. In retrospect, the album can be seen as a dry run for Annie Lennox's debut solo album, Diva (1992); songs like "Don't Ask Me Why" (which grazed the U.S. Top 40) serve as precursors to the dramatic ballads to come. There is, however, an air of romantic resignation throughout We Too Are One, appropriate to its valedictory nature. The disc spawned four chart singles in the U.K. and returned Eurythmics to number one in the album charts, but it did not substantially improve Eurythmics' reduced commercial standing in the U.S., confirming that it was time for Lennox and Dave Stewart to pursue other opportunities.
Не забывайте говорить Спасибо. Не уходите с раздачи!   
Торрент: Зарегистрирован [16 ноя 2018, 14:03]
Статус:
Проверен
 
.torrent скачан: 0 раз
Хэш: 8de5fa6b467fd244a90050318c3a66d5a9445d05
Размер: 590.04 МБ (618 698 761 байт)
   Стать Автором раздачи
   
Цитата
  • Похожие торренты
    Ответы
    Просмотры
    Последнее сообщение

Вернуться в Поп-музыка (Hi-Res stereo)

Кто сейчас на конференции

Сейчас эту тему просматривают: нет зарегистрированных пользователей и гости: 1