[TR24][OF] Beyoncé - LEMONADE (MQA 96/24bit Rip) - 2016 (R&B)

 Статистика раздачи 
Размер: 906.38 МБ   |  Зарегистрирован: 18 янв 2017, 14:12   |   .torrent скачан: 0 раз
Сидеров: 0  [ 0 байт/сек ]     Личеров: 0  [ 0 байт/сек ]  
  
Аватара пользователя
Главный редактор
Главный редактор
 
Раздал: 90.01 ТБ
Скачал: 3.78 ТБ
Ратио: 24.248
Сообщения: 274856
Стаж: 9 лет 1 месяц 20 дней
Откуда: Санкт-Петербург
СообщениеДобавлено: 18 янв 2017, 14:12


Beyoncé / LEMONADE (MQA 24bit Rip)
Формат записи/Источник записи: [TR24][OF]
Наличие водяных знаков: Нет
Издание: Discography
Год издания/переиздания диска: 2016
Жанр: R&B
Издатель(лейбл): Entertainment Group
Продолжительность: 45:56
Наличие сканов в содержимом раздачи: Нет
Треклист:
01 Pray You Catch Me
02 Hold Up
03 Don't Hurt Yourself - Feat. Jack White
04 Sorry
05 6 Inch - Feat. The Weeknd
06 Daddy Lessons
07 Love Drought
08 Sandcastles
09 Forward - Feat. James Blake
10 Freedom - Feat. Kendrick Lamar
11 All Night
12 Formation
Контейнер: FLAC (*.flac)
Тип рипа: tracks
Разрядность: 24/96
Формат: FLAC
Количество каналов: 2.0
Код: Выделить всё
foobar2000 1.3.14 / Dynamic Range Meter 1.1.1
log date: 2017-01-19 04:11:36
--------------------------------------------------------------------------------
Analyzed: Beyoncé featuring Jack White / LEMONADE (MQA) (1)
Beyoncé featuring James Blake / LEMONADE (MQA) (2)
Beyoncé featuring Kendrick Lamar / LEMONADE (MQA) (3)
Beyoncé featuring The Weeknd / LEMONADE (MQA) (4)
Beyoncé / LEMONADE (MQA) (5-12)
--------------------------------------------------------------------------------
DR Peak RMS Duration Track
--------------------------------------------------------------------------------
DR7 0.00 dB -9.20 dB 3:54 03-Don't Hurt Yourself
DR8 -0.44 dB -13.45 dB 1:19 09-Forward
DR6 0.00 dB -8.87 dB 4:50 10-Freedom
DR7 0.00 dB -8.81 dB 4:21 05-6 Inch
DR8 -0.12 dB -11.35 dB 3:16 01-Pray You Catch Me
DR7 0.00 dB -9.88 dB 3:41 02-Hold Up
DR7 0.00 dB -7.85 dB 3:50 04-Sorry
DR8 0.00 dB -9.84 dB 4:48 06-Daddy Lessons
DR6 0.00 dB -8.40 dB 3:58 07-Love Drought
DR9 -0.61 dB -11.78 dB 3:03 08-Sandcastles
DR6 0.00 dB -9.41 dB 5:22 11-All Night
DR6 0.00 dB -7.63 dB 3:25 12-Formation
--------------------------------------------------------------------------------
Number of tracks: 12
Official DR value: DR7
Samplerate: 96000 Hz
Channels: 2
Bits per sample: 24
Bitrate: 2948 kbps
Codec: FLAC
================================================================================
Источник (релизер): собственный рип
Source TIDAL MQA Studio Master
https://listen.tidal.com/album/59727856
Meridian says MQA will “fundamentally change the way we all enjoy music”. It’s a new method of digitally storing recorded music as a file that’s small and convenient to download or even stream, without the sonic sacrifices that are traditionally associated with compressed files.
Meridian says an MQA file requires a similar bandwidth to that required for CD-quality streams. So if you’re able to stream Tidal’s hi-fi tier with relative ease then the new Tidal Masters tier using MQA shouldn’t be a problem.
This means hi-res audio streaming can become a reality, with songs being able to be delivered exactly how they were recorded in the studio, without requiring huge amounts of bandwidth to deliver.
Не забывайте говорить Спасибо. Не уходите с раздачи!   
Торрент: Зарегистрирован [18 янв 2017, 14:12]
Статус:
Проверен
 
.torrent скачан: 0 раз
Хэш: 8db9985a3847dfb12941162cb1b1ff0cdd44a41e
Размер: 906.38 МБ (950 405 399 байт)
   Стать Автором раздачи
   
Цитата
  • Похожие торренты
    Ответы
    Просмотры
    Последнее сообщение

Вернуться в Поп-музыка (Hi-Res stereo)

Кто сейчас на конференции

Сейчас эту тему просматривают: нет зарегистрированных пользователей и гости: 1