[TR24][OF] Mylene Farmer - Interstellaires - 2015 (Pop)

 Статистика раздачи 
Размер: 484.56 МБ   |  Зарегистрирован: 13 янв 2017, 08:56   |   .torrent скачан: 0 раз
Сидеров: 0  [ 0 байт/сек ]     Личеров: 0  [ 0 байт/сек ]  
  
Аватара пользователя
Главный редактор
Главный редактор
 
Раздал: 90.01 ТБ
Скачал: 3.78 ТБ
Ратио: 24.248
Сообщения: 273876
Стаж: 9 лет 1 месяц 14 дней
Откуда: Санкт-Петербург
СообщениеДобавлено: 13 янв 2017, 08:56


Mylene Farmer / Interstellaires
Формат записи/Источник записи: [TR24][OF]
Наличие водяных знаков: Нет
Год издания/переиздания диска: 2015
Жанр: Pop
Издатель(лейбл): Universal Music Division Polydor
Продолжительность: 40:11
Наличие сканов в содержимом раздачи: Буклет PDF
Треклист:
1. Interstellaires
2. Stolen Car
3. A rebours
4. C'est pas moi
5. Insondables
6. Love Song
7. Pas d'access
8. I Want You To Want Me
9. Voie lactee
10. City Of Love
11. Un jour ou l'autre
Контейнер: FLAC (*.flac)
Тип рипа: tracks
Разрядность: 24/44,1
Формат: PCM
Количество каналов: 2.0
Код: Выделить всё
foobar2000 1.3.12 / Dynamic Range Meter 1.1.1
log date: 2016-12-10 00:15:21
--------------------------------------------------------------------------------
Analyzed: Mylène Farmer / Interstellaires
--------------------------------------------------------------------------------
DR         Peak         RMS     Duration Track
--------------------------------------------------------------------------------
DR7        0.00 dB    -9.04 dB      3:11 01-Interstellaires
DR5       -0.84 dB    -9.01 dB      3:23 02-Stolen Car
DR7        0.00 dB    -8.81 dB      4:11 03-A rebours
DR7        0.00 dB    -8.31 dB      3:41 04-C'est pas moi
DR8        0.00 dB    -9.93 dB      2:38 05-Insondables
DR5        0.00 dB    -8.23 dB      4:34 06-Love Song
DR7       -0.10 dB    -8.79 dB      3:17 07-Pas d'access
DR8       -0.28 dB   -10.66 dB      3:06 08-I Want You To Want Me
DR7        0.00 dB    -9.43 dB      3:17 09-Voie lactée
DR6        0.00 dB    -8.35 dB      4:26 10-City Of Love
DR7        0.00 dB    -9.52 dB      4:27 11-Un jour ou l'autre
--------------------------------------------------------------------------------
Number of tracks:  11
Official DR value: DR7
Samplerate:        44100 Hz
Channels:          2
Bits per sample:   24
Bitrate:           1522 kbps
Codec:             FLAC
================================================================================


Источник (релизер):
Не забывайте говорить Спасибо. Не уходите с раздачи!   
Торрент: Зарегистрирован [13 янв 2017, 08:56]
Статус:
Проверен
 
.torrent скачан: 0 раз
Хэш: 5f287fbc4947c572f0edfea76ecee4de9043de89
Размер: 484.56 МБ (508 098 766 байт)
   Стать Автором раздачи
   
Цитата
  • Похожие торренты
    Ответы
    Просмотры
    Последнее сообщение

Вернуться в Поп-музыка (Hi-Res stereo)

Кто сейчас на конференции

Сейчас эту тему просматривают: нет зарегистрированных пользователей и гости: 1