[TR24][OF] Britney Spears - Britney Jean (Explicit) - 2013 (Pop)

 Статистика раздачи 
Размер: 443.14 МБ   |  Зарегистрирован: 06 янв 2017, 08:33   |   .torrent скачан: 0 раз
Сидеров: 0  [ 0 байт/сек ]     Личеров: 0  [ 0 байт/сек ]  
  
Аватара пользователя
Главный редактор
Главный редактор
 
Раздал: 90.01 ТБ
Скачал: 3.78 ТБ
Ратио: 24.248
Сообщения: 274043
Стаж: 9 лет 1 месяц 16 дней
Откуда: Санкт-Петербург
СообщениеДобавлено: 06 янв 2017, 08:33


Britney Spears / Britney Jean (Explicit)
Формат записи/Источник записи: [TR24][OF]
Наличие водяных знаков: Нет
Год издания/переиздания диска: 2013
Жанр: Pop
Издатель(лейбл): RCA Records
Продолжительность: 36:09
Наличие сканов в содержимом раздачи: Только обложка альбома
Треклист:
1. Alien
2. Work B**ch
3. Perfume
4. It Should Be Easy
5. Tik Tik Boom
6. Body Ache
7. Til It's Gone
8. Passenger
9. Chillin' With You
10. Don't Cry
Контейнер: FLAC (*.flac)
Тип рипа: tracks
Разрядность: 24/44,1
Формат: PCM
Количество каналов: 2.0
Код: Выделить всё
foobar2000 1.3.13 / Замер динамического диапазона (DR) 1.1.1
Дата отчёта:  2017-01-06 10:01:07
--------------------------------------------------------------------------------
Анализ:   Britney Spears / Britney Jean
--------------------------------------------------------------------------------
DR         Пики         RMS           Продолжительность трека
--------------------------------------------------------------------------------
DR5       -0.50 дБ    -6.87 дБ      3:56 01-Alien
DR4       -0.50 дБ    -6.76 дБ      4:08 02-Work B**ch
DR5       -0.50 дБ    -8.03 дБ      4:00 03-Perfume
DR4       -0.50 дБ    -7.16 дБ      3:27 04-It Should Be Easy
DR4       -0.50 дБ    -7.54 дБ      2:57 05-Tik Tik Boom
DR5       -0.50 дБ    -8.38 дБ      3:26 06-Body Ache
DR4       -0.55 дБ    -7.89 дБ      3:43 07-Til It's Gone
DR6       -0.50 дБ    -8.13 дБ      3:40 08-Passenger
DR5       -0.50 дБ    -7.73 дБ      3:38 09-Chillin' With You
DR5       -0.50 дБ    -8.66 дБ      3:14 10-Don't Cry
--------------------------------------------------------------------------------
Количество треков: 10
Реальные значения DR: DR5
Частота:   44100 Гц
Каналов:   2
Разрядность:   24
Битрейт:   1641 кбит/с
Кодек:   FLAC
================================================================================


Источник (релизер):
Не забывайте говорить Спасибо. Не уходите с раздачи!   
Торрент: Зарегистрирован [06 янв 2017, 08:33]
Статус:
Проверен
 
.torrent скачан: 0 раз
Хэш: a1b06a1ee333ca276fc8970da6149c7828b61888
Размер: 443.14 МБ (464 669 959 байт)
   Стать Автором раздачи
   
Цитата

Вернуться в Поп-музыка (Hi-Res stereo)

Кто сейчас на конференции

Сейчас эту тему просматривают: нет зарегистрированных пользователей и гости: 1