[TR24][OF] Mika - No Place In Heaven - 2015/2016 (Pop)

 Статистика раздачи 
Размер: 570.88 МБ   |  Зарегистрирован: 14 дек 2016, 07:06   |   .torrent скачан: 0 раз
Сидеров: 0  [ 0 байт/сек ]     Личеров: 0  [ 0 байт/сек ]  
  
Аватара пользователя
Главный редактор
Главный редактор
 
Раздал: 90.01 ТБ
Скачал: 3.78 ТБ
Ратио: 24.248
Сообщения: 274898
Стаж: 9 лет 1 месяц 21 день
Откуда: Санкт-Петербург
СообщениеДобавлено: 14 дек 2016, 07:06


Mika / No Place In Heaven
Формат записи/Источник записи: [TR24][OF]
Наличие водяных знаков: Нет
Год издания/переиздания диска: 2015/2016
Жанр: Pop
Издатель(лейбл): Universal Music
Продолжительность: 00:48:39
Наличие сканов в содержимом раздачи: Нет
Треклист:
01. Talk About You
02. All She Wants
03. Last Party
04. Good Guys
05. Oh Girl You're The Devil
06. No Place In Heaven
07. Staring At The Sun
08. Hurts
09. Good Wife
10. Rio
11. Ordinary Man
12. Promiseland
13. Porcelain
14. Good Guys
Контейнер: FLAC (*.flac)
Тип рипа: tracks
Разрядность: 24/44,1
Формат: PCM
Количество каналов: 2.0
Код: Выделить всё
foobar2000 1.3.13 / Замер динамического диапазона (DR) 1.1.1
Дата отчёта:  2016-12-14 08:56:42
--------------------------------------------------------------------------------
Анализ:   MIKA / No Place In Heaven
--------------------------------------------------------------------------------
DR         Пики         RMS           Продолжительность трека
--------------------------------------------------------------------------------
DR5        0.00 дБ    -6.10 дБ      3:22 01-Talk About You
DR5        0.00 дБ    -6.27 дБ      3:40 02-All She Wants
DR6        0.00 дБ   -11.68 дБ      3:39 03-Last Party
DR6        0.00 дБ    -8.58 дБ      3:23 04-Good Guys
DR5        0.00 дБ    -6.51 дБ      2:52 05-Oh Girl You’re The Devil
DR5        0.00 дБ    -7.20 дБ      3:20 06-No Place In Heaven
DR5        0.00 дБ    -6.37 дБ      3:36 07-Staring At The Sun
DR8        0.00 дБ   -10.81 дБ      3:37 08-Hurts
DR5        0.00 дБ    -7.56 дБ      3:18 09-Good Wife
DR6        0.00 дБ    -8.38 дБ      4:08 10-Rio
DR7        0.00 дБ   -10.81 дБ      3:48 11-Ordinary Man
DR7        0.00 дБ    -9.04 дБ      2:59 12-Promiseland [Bonus Track]
DR7        0.00 дБ    -9.82 дБ      3:20 13-Porcelain [Bonus Track]
DR4        0.00 дБ    -6.01 дБ      3:37 14-Good Guys [Bonus Track]
--------------------------------------------------------------------------------
Количество треков: 14
Реальные значения DR: DR6
Частота:   44100 Гц
Каналов:   2
Разрядность:   24
Битрейт:   1653 кбит/с
Кодек:   FLAC
================================================================================


Источник (релизер):
Не забывайте говорить Спасибо. Не уходите с раздачи!   
Торрент: Зарегистрирован [14 дек 2016, 07:06]
Статус:
Проверен
 
.torrent скачан: 0 раз
Хэш: e4cdc43028b5f78bca521d806c53f5fd703b5959
Размер: 570.88 МБ (598 610 650 байт)
   Стать Автором раздачи
   
Цитата

Вернуться в Поп-музыка (Hi-Res stereo)

Кто сейчас на конференции

Сейчас эту тему просматривают: нет зарегистрированных пользователей и гости: 1