[TR24][OF] Vera Lynn - Vera Lynn 100 - 2017 (Pop)

 Статистика раздачи 
Размер: 396.68 МБ   |  Зарегистрирован: 28 фев 2018, 09:03   |   .torrent скачан: 0 раз
Сидеров: 0  [ 0 байт/сек ]     Личеров: 0  [ 0 байт/сек ]  
  
Аватара пользователя
Главный редактор
Главный редактор
 
Раздал: 90.01 ТБ
Скачал: 3.78 ТБ
Ратио: 24.248
Сообщения: 273621
Стаж: 9 лет 1 месяц 12 дней
Откуда: Санкт-Петербург
СообщениеДобавлено: 28 фев 2018, 09:03


Vera Lynn - Vera Lynn 100
Формат записи/Источник записи: [TR24][OF]
Наличие водяных знаков: Нет
Год издания/переиздания диска: 2017
Жанр: Pop
Издатель (лейбл): Decca
Продолжительность: 38:16
Наличие сканов в содержимом раздачи: Только обложка альбома
Треклист:
01. We'll Meet Again (with Alfie Boe) (3:30)
02. Sailing (3:05)
03. (There'll Be Bluebirds Over) The White Cliffs Of Dover (with Alexander Armstrong) (3:20)
04. Wish Me Luck As You Wave Me Goodbye (3:29)
05. As Time Goes By (3:09)
06. Auf Wiederseh'n Sweetheart (2:40)
07. The Loveliest Night Of The Year (2:33)
08. When You Wish Upon A Star (with Cynthia Erivo) (2:33)
09. A Nightingale Sang In Berkeley Square (with The Ayoub Sisters) (3:29)
10. I'm Forever Blowing Bubbles (3:32)
11. Close To You (3:40)
12. Yours (with The Squadronaires) (3:17)
 
Celebrating 100 years of a UK National Treasure with brand new orchestral versions of her most beloved songs. A true icon, Vera Lynn reaches her 100th Birthday on the 20th March 2017. To celebrate this milestone, the newly recorded album, Vera 100, features Vera Lynn’s utterly distinctive original vocals set to completely new re-orchestrated versions of her most beloved songs. This technical wizardry has, for the first time, allowed full orchestral accompaniments to transform not only her most memorable and morale-boosting hits that sustained Britons through the wartime years, but some recently unearthed, rare recordings – all presented in sumptuous, up-to-the-minute sound. Vera’s vocal on the lead track, Sailing, has not been heard for 35 years. The album also features several duet partners including Alfie Boe, Alexander Armstrong , Aled Jones and the RAF Squadronaires.

Контейнер: FLAC (*.flac)
Тип рипа: tracks
Разрядность: 24/44,1
Формат: PCM
Количество каналов: 2.0
Код: Выделить всё
foobar2000 1.3.9 / Dynamic Range Meter 1.1.1
log date: 2018-02-28 11:50:05
--------------------------------------------------------------------------------
Analyzed: Vera Lynn / Vera Lynn 100
--------------------------------------------------------------------------------
DR         Peak         RMS     Duration Track
--------------------------------------------------------------------------------
DR12       0.00 dB   -15.81 dB      3:30 01-We'll Meet Again (with Alfie Boe)
DR8        0.00 dB   -14.14 dB      3:05 02-Sailing
DR11      -5.86 dB   -19.52 dB      3:20 03-(There'll Be Bluebirds Over) The White Cliffs Of Dover (with Alexander Armstrong)
DR14       0.00 dB   -17.88 dB      3:29 04-Wish Me Luck As You Wave Me Goodbye
DR13       0.00 dB   -17.19 dB      3:09 05-As Time Goes By
DR13       0.00 dB   -17.24 dB      2:40 06-Auf Wiederseh'n Sweetheart
DR12      -0.96 dB   -16.38 dB      2:33 07-The Loveliest Night Of The Year
DR12       0.00 dB   -15.65 dB      2:33 08-When You Wish Upon A Star (with Cynthia Erivo)
DR11      -2.91 dB   -17.31 dB      3:29 09-A Nightingale Sang In Berkeley Square (with The Ayoub Sisters)
DR11       0.00 dB   -14.38 dB      3:32 10-I'm Forever Blowing Bubbles
DR12      -1.41 dB   -16.20 dB      3:40 11-Close To You
DR11       0.00 dB   -15.88 dB      3:17 12-Yours (with The Squadronaires)
--------------------------------------------------------------------------------
Number of tracks:  12
Official DR value: DR12
Samplerate:        44100 Hz
Channels:          2
Bits per sample:   24
Bitrate:           1450 kbps
Codec:             FLAC
================================================================================
Источник: 7digital.com[/spoiler]
Не забывайте говорить Спасибо. Не уходите с раздачи!   
Торрент: Зарегистрирован [28 фев 2018, 09:03]
Статус:
Проверен
 
.torrent скачан: 0 раз
Хэш: 93235a2002894483670cea8af341c70f6ed738e1
Размер: 396.68 МБ (415 950 015 байт)
   Стать Автором раздачи
   
Цитата
  • Похожие торренты
    Ответы
    Просмотры
    Последнее сообщение

Вернуться в Поп-музыка (Hi-Res stereo)

Кто сейчас на конференции

Сейчас эту тему просматривают: нет зарегистрированных пользователей и гости: 1