[TR24][OF] Michael Jackson - Ben - 1972/2016 (Pop, R&B)

 Статистика раздачи 
Размер: 1.19 ГБ   |  Зарегистрирован: 15 сен 2017, 12:59   |   .torrent скачан: 0 раз
Сидеров: 0  [ 0 байт/сек ]     Личеров: 0  [ 0 байт/сек ]  
  
Аватара пользователя
Главный редактор
Главный редактор
Я на сайте
 
Раздал: 90.01 ТБ
Скачал: 3.78 ТБ
Ратио: 24.248
Сообщения: 274792
Стаж: 9 лет 1 месяц 19 дней
Откуда: Санкт-Петербург
СообщениеДобавлено: 15 сен 2017, 12:59


Michael Jackson / Ben
Формат записи/Источник записи: [TR24][OF]
Наличие водяных знаков: Нет
Год издания/переиздания диска: 1972/2016
Жанр: Pop, R&B
Издатель (лейбл): Universal Motown
Продолжительность: 00:31:13
Наличие сканов в содержимом раздачи: Только обложка альбома
Треклист:
01. Ben
02. Greatest Show On Earth
03. People Make The World Go 'Round
04. We've Got A Good Thing Going
05. Everybody's Somebody's Fool
06. My Girl
07. What Goes Around Comes Around
08. In Our Small Way
09. Shoo-Be-Doo-Be-Doo-Da-Day
10. You Can Cry On My Shoulder
Контейнер: FLAC (*.flac)
Тип рипа: tracks
Разрядность: 24/192
Формат: PCM
Количество каналов: 2.0
Код: Выделить всё
foobar2000 1.3.16 / Замер динамического диапазона (DR) 1.1.1
Дата отчёта:  2017-09-15 18:42:00
--------------------------------------------------------------------------------
Анализ:   Michael Jackson / Ben
--------------------------------------------------------------------------------
DR         Пики         RMS           Продолжительность трека
--------------------------------------------------------------------------------
DR11      -0.06 дБ   -13.53 дБ      2:47 01-Ben
DR12       0.00 дБ   -14.43 дБ      2:47 02-Greatest Show On Earth
DR12       0.00 дБ   -14.23 дБ      3:16 03-People Make The World Go 'Round
DR13      -0.03 дБ   -15.90 дБ      3:03 04-We've Got A Good Thing Going
DR13       0.00 дБ   -15.33 дБ      3:01 05-Everybody's Somebody's Fool
DR12       0.00 дБ   -14.03 дБ      3:09 06-My Girl
DR13       0.00 дБ   -14.91 дБ      3:31 07-What Goes Around Comes Around
DR12       0.00 дБ   -14.36 дБ      3:40 08-In Our Small Way
DR15       0.00 дБ   -16.70 дБ      3:21 09-Shoo-Be-Doo-Be-Doo-Da-Day
DR12       0.00 дБ   -12.59 дБ      2:38 10-You Can Cry On My Shoulder
--------------------------------------------------------------------------------
Количество треков: 10
Реальные значения DR: DR12
Частота:   192000 Гц
Каналов:   2
Разрядность:   24
Битрейт:   5734 кбит/с
Кодек:   FLAC
================================================================================
Источник (релизер): qobuz
Не забывайте говорить Спасибо. Не уходите с раздачи!   
Торрент: Зарегистрирован [15 сен 2017, 12:59]
Статус:
Проверен
 
.torrent скачан: 0 раз
Хэш: deed30a88691e5c1b9c09c67c6a7a695e279af77
Размер: 1.19 ГБ (1 278 993 881 байт)
   Стать Автором раздачи
   
Цитата
  • Похожие торренты
    Ответы
    Просмотры
    Последнее сообщение

Вернуться в Поп-музыка (Hi-Res stereo)

Кто сейчас на конференции

Сейчас эту тему просматривают: нет зарегистрированных пользователей и гости: 1