[TR24][OF] Shania Twain - Up! (Red And Green Versions) (Remastered) - 2002/2017 (Pop, Country)

 Статистика раздачи 
Размер: 3.13 ГБ   |  Зарегистрирован: 22 фев 2018, 23:40   |   .torrent скачан: 0 раз
Сидеров: 0  [ 0 байт/сек ]     Личеров: 0  [ 0 байт/сек ]  
  
Аватара пользователя
Главный редактор
Главный редактор
 
Раздал: 90.01 ТБ
Скачал: 3.78 ТБ
Ратио: 24.248
Сообщения: 274856
Стаж: 9 лет 1 месяц 20 дней
Откуда: Санкт-Петербург

Shania Twain - Up! (Red And Green Versions)
Формат записи/Источник записи: [TR24][OF]
Наличие водяных знаков: Нет
Издание: Remastered
Год издания/переиздания диска: 2002/2017
Жанр: Pop, Country
Издатель (лейбл): Mercury Nashville
Продолжительность: 02:25:46
Наличие сканов в содержимом раздачи: Только обложка альбома
Источник: hdtracks.com
  
Контейнер: FLAC (*.flac)
Тип рипа: tracks
Разрядность: 24/96
Формат: PCM
Количество каналов: 2.0
#7701. Up! (2:53)
02. I'm Gonna Getcha Good! (4:29)
03. She's Not Just A Pretty Face (3:49)
04. Juanita (3:51)
05. Forever And For Always (4:43)
06. Ain't No Particular Way (4:25)
07. It Only Hurts When I'm Breathing (3:19)
08. Nah! (4:09)
09. (Wanna Get To Know You) That Good! (4:34)
10. C'est la Vie (3:43)
11. I'm Jealous (4:05)
12. Ka-Ching! (3:21)
13. Thank You Baby! (For Makin' Someday Come So Soon) (4:01)
14. Waiter! Bring Me Water! (3:20)
15. What A Way To Wanna Be! (3:36)
16. I Ain't Goin' Down (3:58)
17. I'm Not In The Mood (To Say No)! (3:26)
18. In My Car (I'll Be The Driver) (3:17)
19. When You Kiss Me (4:09)
 
Код: Выделить всё
foobar2000 1.3.9 / Dynamic Range Meter 1.1.1
log date: 2018-02-23 01:05:29
--------------------------------------------------------------------------------
Analyzed: Shania Twain / Up! (Disc 1 - Red Version)
--------------------------------------------------------------------------------
DR         Peak         RMS     Duration Track
--------------------------------------------------------------------------------
DR6       -0.04 dB    -7.58 dB      2:53 01-Up!
DR7        0.00 dB    -7.80 dB      4:29 02-I'm Gonna Getcha Good!
DR7        0.00 dB    -8.06 dB      3:49 03-She's Not Just A Pretty Face
DR6        0.00 dB    -7.79 dB      3:51 04-Juanita
DR6       -0.08 dB    -7.63 dB      4:43 05-Forever And For Always
DR6        0.00 dB    -7.52 dB      4:25 06-Ain't No Particular Way
DR6        0.00 dB    -7.56 dB      3:19 07-It Only Hurts When I'm Breathing
DR6       -0.15 dB    -8.04 dB      4:09 08-Nah!
DR6       -0.09 dB    -7.87 dB      4:34 09-(Wanna Get To Know You) That Good!
DR7       -0.14 dB    -8.32 dB      3:43 10-C'est la Vie
DR6       -0.30 dB    -7.97 dB      4:05 11-I'm Jealous
DR7       -0.03 dB    -8.17 dB      3:21 12-Ka-Ching!
DR6        0.00 dB    -7.57 dB      4:01 13-Thank You Baby! (For Makin' Someday Come So Soon)
DR7        0.00 dB    -8.90 dB      3:20 14-Waiter! Bring Me Water!
DR7        0.00 dB    -8.11 dB      3:36 15-What A Way To Wanna Be!
DR6       -0.05 dB    -8.25 dB      3:58 16-I Ain't Goin' Down
DR7        0.00 dB    -8.00 dB      3:26 17-I'm Not In The Mood (To Say No)!
DR6        0.00 dB    -7.96 dB      3:17 18-In My Car (I'll Be The Driver)
DR6       -0.40 dB    -8.34 dB      4:09 19-When You Kiss Me
--------------------------------------------------------------------------------
Number of tracks:  19
Official DR value: DR6
Samplerate:        96000 Hz
Channels:          2
Bits per sample:   24
Bitrate:           2992 kbps
Codec:             FLAC
================================================================================
#7701. Up! (2:53)
02. I'm Gonna Getcha Good (4:29)
03. She's Not Just A Pretty Face (3:49)
04. Juanita (3:50)
05. Forever And For Always (4:43)
06. Ain't No Particular Way (4:25)
07. It Only Hurts When I'm Breathing (3:20)
08. Nah! (4:14)
09. (Wanna Get To Know You) That Good! (4:31)
10. C'est la Vie (3:39)
11. I'm Jealous (3:59)
12. Ka-Ching! (3:20)
13. Thank You Baby! (For Makin' Someday Come So Soon) (4:01)
14. Waiter! Bring Me Water! (3:20)
15. What A Way To Wanna Be! (3:33)
16. I Ain't Goin' Down (3:45)
17. I'm Not In The Mood (To Say No)! (3:26)
18. In My Car (I'll Be The Driver) (3:15)
19. When You Kiss Me (4:07)
 
Код: Выделить всё
foobar2000 1.3.9 / Dynamic Range Meter 1.1.1
log date: 2018-02-23 01:35:46
--------------------------------------------------------------------------------
Analyzed: Shania Twain / Up! (Disc 2 - Green Version)
--------------------------------------------------------------------------------
DR         Peak         RMS     Duration Track
--------------------------------------------------------------------------------
DR6        0.00 dB    -7.39 dB      2:53 01-Up!
DR7       -0.02 dB    -8.20 dB      4:29 02-I'm Gonna Getcha Good
DR7        0.00 dB    -8.32 dB      3:49 03-She's Not Just A Pretty Face
DR7        0.00 dB    -7.96 dB      3:50 04-Juanita
DR6        0.00 dB    -7.54 dB      4:43 05-Forever And For Always
DR6       -0.07 dB    -7.21 dB      4:25 06-Ain't No Particular Way
DR6        0.00 dB    -6.93 dB      3:20 07-It Only Hurts When I'm Breathing
DR7        0.00 dB    -7.66 dB      4:14 08-Nah!
DR7       -0.30 dB    -8.24 dB      4:31 09-(Wanna Get To Know You) That Good!
DR7        0.00 dB    -8.41 dB      3:39 10-C'est la Vie
DR6       -0.26 dB    -7.97 dB      3:59 11-I'm Jealous
DR7       -0.12 dB    -8.74 dB      3:20 12-Ka-Ching!
DR6        0.00 dB    -7.52 dB      4:01 13-Thank You Baby! (For Makin' Someday Come So Soon)
DR7       -0.25 dB    -8.36 dB      3:20 14-Waiter! Bring Me Water!
DR6       -0.22 dB    -8.01 dB      3:33 15-What A Way To Wanna Be!
DR6        0.00 dB    -7.99 dB      3:45 16-I Ain't Goin' Down
DR7        0.00 dB    -8.25 dB      3:26 17-I'm Not In The Mood (To Say No)!
DR6        0.00 dB    -7.54 dB      3:15 18-In My Car (I'll Be The Driver)
DR6        0.00 dB    -8.04 dB      4:07 19-When You Kiss Me
--------------------------------------------------------------------------------
Number of tracks:  19
Official DR value: DR6
Samplerate:        96000 Hz
Channels:          2
Bits per sample:   24
Bitrate:           2974 kbps
Codec:             FLAC
================================================================================
"Up!" is the fourth studio album by Canadian singer Shania Twain. Three versions of the album were released: a pop version (red disc), a country version (green disc), and an international version (blue disc); all three discs contain exactly the same track listing. In the US, "Up!" debuted at No. 1 with sales of 874,000 copies. On September 23, 2004, the RIAA certified Up! at 11× Platinum, giving her the distinction of being the only female artist to have three consecutive Diamond albums released in the United States.
When Up! was released in November 2002, Shania Twain revealed in one of many promotional interviews that she writes far more songs than can fit on her records and that she hides any personal, introspective songs she pens, not even playing them for her husband and collaborator Robert John "Mutt" Lange. Now, this is certainly a psychological quirk worth exploring, but it also suggests why Twain's albums are such brilliant pieces of mainstream pop. Anything that doesn't fit the mold is discarded, so the album can hum along on its big, polished, multipurpose hooks and big, sweeping emotions. This is Super-Size pop, as outsized and grandiose as good pop should be. And, unlike the work of most pop divas, where the subject matter is firmly about the singer, none of the songs on Up! are remotely about Shania Twain, the person – let's face it, she's never faced a situation like "Waiter! Bring Me Water!," where she's afraid her guy is going to be stolen away by their hot waitress. No, these songs have been crafted as universal anthems, so listeners can hear themselves within these tales. Just as cleverly, the songs are open-ended and mutable – always melodic, but never stuck in any particular style, so they can be subjected to any kind of mix and sound just as good. (Indeed, Up! was initially released in no less than three different mixes – the "Red" pop mix, the "Green" country mix, and the "Blue" international mix; sometimes the differences in mixes were so slight, it sounded like nothing was changed, but each mix revealed how sturdy and melodic the structure of each of the 19 songs was, and how they were designed to sound good in any setting.) True, the sheer length of the album could be seen as off-putting at first, since these 19 tracks don't necessarily flow as a whole. Then again, part of the genius of Up! is that it's designed as a collection of tracks, so the album is durable enough to withstand years on the charts, producing singles with different textures and moods every few months. Time revealed Come on Over as a stellar pop album, and the same principle works for Up!. Upon the first listen, singles seem indistinct, and it seems like too much to consume at once, but once you know the lay of the land, the hooks become indelible and the gargantuan glossiness of the production is irresistible. In other words, it's a more than worthy follow-up to the great mainstream pop album of the late '90s, and proof that when it comes to shiny, multipurpose pop, nobody does it better than Shania Twain.
Не забывайте говорить Спасибо. Не уходите с раздачи!   
Торрент: Зарегистрирован [22 фев 2018, 23:40]
Статус:
Проверен
 
.torrent скачан: 0 раз
Хэш: 5d2b032717ac7cee96386f20988bfab017c1dc41
Размер: 3.13 ГБ (3 364 843 908 байт)
   Стать Автором раздачи
   
Цитата
  • Похожие торренты
    Ответы
    Просмотры
    Последнее сообщение

Вернуться в Поп-музыка (Hi-Res stereo)

Кто сейчас на конференции

Сейчас эту тему просматривают: нет зарегистрированных пользователей и гости: 1