[TR24][OF] Jain - Souldier - 2018 (Pop | Soul)

 Статистика раздачи 
Размер: 350.8 МБ   |  Зарегистрирован: 25 авг 2018, 16:07   |   .torrent скачан: 0 раз
Сидеров: 0  [ 0 байт/сек ]     Личеров: 0  [ 0 байт/сек ]  
  
Аватара пользователя
Главный редактор
Главный редактор
Я на сайте
 
Раздал: 90.01 ТБ
Скачал: 3.78 ТБ
Ратио: 24.248
Сообщения: 274792
Стаж: 9 лет 1 месяц 19 дней
Откуда: Санкт-Петербург
СообщениеДобавлено: 25 авг 2018, 16:07



Jain


Souldier



• Формат записи | Источник записи: [TR24][OF]
• Наличие водяных знаков: Нет
• Страна исполнителя: France
• Год издания релиза: 2018
• Жанр: Pop | Soul
• Издатель (лейбл): Columbia
• Продолжительность: 00:31:18
• Источник, релизер: BNMus
• WEB релиз: 7digital
• Контейнер: FLAC (*.flac)
• Тип рипа: tracks
• Разрядность: 24/44,1
• Формат: WAV (flac.ape.wv)
• Количество каналов: 2.0
• Наличие сканов: booklet

01 - On My Way (00:03:23)
02 - Flash (Pointe-Noire) (00:02:19)
03 - Alright (00:03:42)
04 - Oh Man (00:03:22)
05 - Inspecta (00:03:05)
06 - Dream (00:03:04)
07 - Star (00:03:01)
08 - Feel It (00:02:39)
09 - Abu Dhabi (00:02:51)
10 - Souldier (00:03:46)


Код: Выделить всё
foobar2000 1.3.7 / Dynamic Range Meter 1.1.1
log date: 2018-08-24 13:49:47
--------------------------------------------------------------------------------
Analyzed: Jain / Souldier
--------------------------------------------------------------------------------
DR         Peak         RMS     Duration Track
--------------------------------------------------------------------------------
DR7       -0.32 dB    -9.53 dB      3:24 01-On My Way
DR7       -0.21 dB    -9.30 dB      2:19 02-Flash (Pointe-Noire)
DR7       -0.22 dB    -9.05 dB      3:42 03-Alright
DR7       -0.31 dB    -9.21 dB      3:23 04-Oh Man
DR7       -0.22 dB    -8.61 dB      3:06 05-Inspecta
DR7       -0.22 dB   -10.11 dB      3:05 06-Dream
DR6       -0.21 dB    -8.68 dB      3:02 07-Star
DR7       -0.22 dB   -10.14 dB      2:39 08-Feel It
DR7       -0.22 dB    -8.93 dB      2:52 09-Abu Dhabi
DR8       -0.22 dB   -10.88 dB      3:47 10-Souldier
--------------------------------------------------------------------------------
Number of tracks:  10
Official DR value: DR7
Samplerate:        44100 Hz
Channels:          2
Bits per sample:   24
Bitrate:           1479 kbps
Codec:             FLAC
============================================================================


Не забывайте говорить Спасибо. Не уходите с раздачи!   
Торрент: Зарегистрирован [25 авг 2018, 16:07]
Статус:
Проверен
 
.torrent скачан: 0 раз
Хэш: 207f447d08be3a5ededb5b244ab053b2c59e228a
Размер: 350.8 МБ (367 845 618 байт)
   Стать Автором раздачи
   
Цитата
  • Похожие торренты
    Ответы
    Просмотры
    Последнее сообщение

Вернуться в Поп-музыка (Hi-Res stereo)

Кто сейчас на конференции

Сейчас эту тему просматривают: нет зарегистрированных пользователей и гости: 1