[TR24][OF] Thomas Bartlett & Nico Muhly - Peter Pears: Balinese Ceremonial Music - 2018 (World Music, Indie Pop)

 Статистика раздачи 
Размер: 902.31 МБ   |  Зарегистрирован: 18 май 2018, 20:39   |   .torrent скачан: 0 раз
Сидеров: 0  [ 0 байт/сек ]     Личеров: 0  [ 0 байт/сек ]  
  
Аватара пользователя
Главный редактор
Главный редактор
 
Раздал: 90.01 ТБ
Скачал: 3.78 ТБ
Ратио: 24.248
Сообщения: 274898
Стаж: 9 лет 1 месяц 21 день
Откуда: Санкт-Петербург

Thomas Bartlett & Nico Muhly - Peter Pears: Balinese Ceremonial Music
Формат записи/Источник записи: [TR24][OF]
Наличие водяных знаков: Нет
Год издания/переиздания диска: 2018
Жанр: World Music, Indie Pop
Издатель (лейбл): Nonesuch Records
Продолжительность: 46:29
Наличие сканов в содержимом раздачи: Буклет PDF
Треклист:
01. Gambangan (1:57)
02. Dominic (3:44)
03. Festina (4:04)
04. Grendel (4:30)
05. Pemoengkah (2:41)
06. Valentine (3:57)
07. Albeus (3:29)
08. Nicholas (3:37)
09. Taboeh Teloe (4:44)
10. Selenite (4:31)
11. Eusebius (4:54)
12. Balthasar (4:21)
 
Carrying a somewhat cryptic title, Peter Pears: Balinese Ceremonial Music is a collection of original songs by composer/arranger Nico Muhly and singer/songwriter/producer Thomas Bartlett (Doveman). Both active in their own varied roles on the indie rock scene, they're also both classically trained pianists who first met in the early 2000s at Columbia University. They later discovered a shared interest in the work of Colin McPhee, a Canadian composer credited as the first to bring the music of Bali and Java to the West. A precursor to modern world music, his gamelan transcriptions for dual piano were eventually recorded in the 1940s by McPhee and composer Benjamin Britten. Three of those transcriptions are performed here by Bartlett and Muhly and scattered through a sequence of nine original songs inspired by McPhee's work. The project is named in honor of Britten's partner, opera tenor Peter Pears (an interesting figure in his own right). Bartlett's lyrics were inspired by a combination of self-discoveries in his mother's baby books and references to things connected to Pears and McPhee, including the personal and musical.
Perhaps the most surprising thing about Peter Pears: Balinese Ceremonial Music, beyond the fact that it's not traditional gamelan music after all, is how well the songs fit alongside Bartlett's work with Doveman. Made up of quiet arrangements for voice, piano, keyboards, strings, and pitched percussion, Bartlett's whispery vocal delivery and the occasional drum samples and glitchy electronics put a gauzy indie electronic filter over the songs' complex, overlapping rhythms. "Festina," for example, mixes pulsing and syncopated polyrhythms across a blend of keyboards, pizzicato strings, and metallic percussion. Bartlett's voice eventually enters on an overarching melody with lyrics that complain of moving too fast ("Chaos beckoned with a graceful hand/Smile like quicksand"). Emerging keyboard phrases, bowed strings, and atmospheric backing vocals join toward the end of the song as melody briefly overtakes rhythm. That push and pull -- melody emerging from rhythmic patterns and vice versa -- is a trait of the whole album and of the gamelan influence itself, including the sparer McPhee tracks ("Gambangan," "Pemoengkah," and "Taboeh Teloe"). An entry like "Selenite" is less intricate but still rhythmic and texturally complex. Taken together, the effect falls somewhere between an exacting étude and a stroll through a garden of wind chimes, with the singer's presence and gossamer instrumental touches often tipping the balance toward the latter. While it may sound, on paper, like an academic exercise, the results are exquisite and often poignant.

Контейнер: FLAC (*.flac)
Тип рипа: tracks
Разрядность: 24/96
Формат: PCM
Количество каналов: 2.0
Код: Выделить всё
foobar2000 1.3.9 / Dynamic Range Meter 1.1.1
log date: 2018-05-18 23:17:18
--------------------------------------------------------------------------------
Analyzed: Thomas Bartlett & Nico Muhly / Peter Pears: Balinese Ceremonial Music
--------------------------------------------------------------------------------
DR         Peak         RMS     Duration Track
--------------------------------------------------------------------------------
DR11      -1.94 dB   -16.18 dB      1:57 01-Gambangan
DR8       -0.10 dB   -10.63 dB      3:44 02-Dominic
DR8       -0.10 dB   -12.17 dB      4:04 03-Festina
DR7       -0.10 dB    -9.50 dB      4:30 04-Grendel
DR11      -4.63 dB   -17.79 dB      2:41 05-Pemoengkah
DR7       -0.10 dB    -9.07 dB      3:57 06-Valentine
DR6       -0.10 dB    -9.88 dB      3:29 07-Albeus
DR8       -0.33 dB   -12.43 dB      3:37 08-Nicholas
DR12      -0.24 dB   -14.93 dB      4:44 09-Taboeh Teloe
DR9       -0.12 dB   -12.81 dB      4:31 10-Selenite
DR10      -0.70 dB   -13.50 dB      4:54 11-Eusebius
DR6       -0.24 dB   -11.14 dB      4:21 12-Balthasar
--------------------------------------------------------------------------------
Number of tracks:  12
Official DR value: DR9
Samplerate:        96000 Hz
Channels:          2
Bits per sample:   24
Bitrate:           2791 kbps
Codec:             FLAC
================================================================================
Источник: qobuz.com[/spoiler]
Не забывайте говорить Спасибо. Не уходите с раздачи!   
Торрент: Зарегистрирован [18 май 2018, 20:39]
Статус:
Проверен
 
.torrent скачан: 0 раз
Хэш: d041078a24b1b07e0fa4edffa660fccb08e316a9
Размер: 902.31 МБ (946 143 907 байт)
   Стать Автором раздачи
   
Цитата

Вернуться в Поп-музыка (Hi-Res stereo)

Кто сейчас на конференции

Сейчас эту тему просматривают: нет зарегистрированных пользователей и гости: 1